<?xml version="1.0" standalone="no"?>
<!DOCTYPE svg PUBLIC "-//W3C//DTD SVG 1.1//EN" "http://www.w3.org/Graphics/SVG/1.1/DTD/svg11.dtd" >
<svg xmlns="http://www.w3.org/2000/svg" xmlns:xlink="http://www.w3.org/1999/xlink" version="1.1">
<metadata>
Created by FontForge 20170731 at Mon Aug 28 13:39:39 2023
 By Aleksey,,,
Copyright 2016 The Oswald Project Authors (https://github.com/googlefonts/OswaldFont)
</metadata>
<defs>
<font id="Oswald-SemiBold" horiz-adv-x="471" >
  <font-face 
    font-family="Oswald SemiBold"
    font-weight="600"
    font-stretch="normal"
    units-per-em="1000"
    panose-1="0 0 7 0 0 0 0 0 0 0"
    ascent="800"
    descent="-200"
    x-height="578"
    cap-height="810"
    bbox="-218 -342 1355 1314"
    underline-thickness="50"
    underline-position="-150"
    unicode-range="U+000D-2215"
  />
<missing-glyph horiz-adv-x="670" 
d="M84 810h502v-810h-502v810zM483 90v630h-296v-630h296z" />
    <glyph glyph-name="fi" unicode="fi" horiz-adv-x="539" 
d="M73 475h-58v103h58v40q0 85 33.5 128t117.5 43q29 0 67 -6v-105q-14 3 -26 3q-21 0 -31 -12t-10 -42v-49h262v-578h-150v475h-112v-475h-151v475zM346 786h140v-113h-140v113z" />
    <glyph glyph-name="fl" unicode="fl" horiz-adv-x="544" 
d="M70 472h-58v106h58v40q0 56 13.5 95t62 66t145.5 27q85 0 206 -23v-783h-151v701q-32 2 -41 2q-38 0 -56 -10.5t-23 -28t-5 -46.5v-40h67v-106h-67v-472h-151v472z" />
    <glyph glyph-name="f_f" unicode="ff" horiz-adv-x="596" 
d="M75 475h-58v103h58v40q0 58 11 94t43.5 56t96.5 20q41 0 77 -5v-112q-25 5 -36 5q-41 0 -41 -51v-47h77v-103h-77v-475h-151v475zM358 475h-58v103h58v40q0 58 11 94t43.5 56t96.5 20q41 0 77 -5v-112q-25 5 -36 5q-41 0 -41 -51v-47h77v-103h-77v-475h-151v475z" />
    <glyph glyph-name="f_f_i" unicode="ffi" horiz-adv-x="789" 
d="M70 476h-58v102h58v40q0 58 11 94t44 56t97 20q33 0 67 -5v-112q-20 4 -32 4q-19 0 -27.5 -12t-8.5 -38v-47h110v40q0 58 11 94t43.5 56t96.5 20q35 0 69 -5v-112q-20 4 -33 4q-19 0 -28 -12t-9 -38v-47h259v-578h-151v476h-108v-476h-150v476h-110v-476h-151v476z
M600 786h140v-113h-140v113z" />
    <glyph glyph-name="f_f_l" unicode="ffl" horiz-adv-x="841" 
d="M786 783v-783h-151v701q-32 2 -41 2q-38 0 -56 -10.5t-23 -28t-5 -46.5v-40h68v-103h-68v-475h-151v475h-133v-475h-151v475h-58v103h58v40q0 58 11 94t43.5 56t96.5 20q42 0 77 -5v-112q-25 5 -36 5q-41 0 -41 -51v-47h133v40q0 56 13.5 95t62 66t145.5 27q85 0 206 -23
z" />
    <glyph glyph-name=".notdef" horiz-adv-x="670" 
d="M84 810h502v-810h-502v810zM483 90v630h-296v-630h296z" />
    <glyph glyph-name=".null" horiz-adv-x="0" 
 />
    <glyph glyph-name="nonmarkingreturn" unicode="&#xd;" horiz-adv-x="250" 
 />
    <glyph glyph-name="NULL" horiz-adv-x="0" 
 />
    <glyph glyph-name="NULL" horiz-adv-x="0" 
 />
    <glyph glyph-name="space" unicode=" " horiz-adv-x="250" 
 />
    <glyph glyph-name="exclam" unicode="!" horiz-adv-x="246" 
d="M49 808h151l-54 -609h-53zM47 143h144v-143h-144v143z" />
    <glyph glyph-name="quotedbl" unicode="&#x22;" horiz-adv-x="340" 
d="M24 810h130l-60 -289h-70v289zM199 810h130l-60 -289h-70v289z" />
    <glyph glyph-name="numbersign" unicode="#" horiz-adv-x="524" 
d="M96 274h-52l2 96h64l14 112h-77l2 99h92l27 229h106l-28 -229h80l28 229h105l-28 -229h50l-2 -99h-65l-13 -112h76l-3 -96h-87l-35 -274h-104l34 274h-80l-34 -274h-105zM296 370l14 112h-81l-15 -112h82z" />
    <glyph glyph-name="dollar" unicode="$" horiz-adv-x="486" 
d="M235 -10q-103 4 -154 66t-55 185l141 24q2 -77 21 -113.5t59 -36.5q29 0 42 18.5t13 47.5q0 48 -21.5 81.5t-67.5 73.5l-84 73q-51 45 -77 90.5t-26 114.5q0 92 52.5 145.5t144.5 59.5v89h48v-89q98 -6 135 -68t42 -156l-143 -21q-2 63 -14 94t-47 31q-29 0 -45 -20
t-16 -49q0 -41 18 -67.5t56 -60.5l82 -72q59 -54 91 -109.5t32 -130.5q0 -81 -49 -136t-131 -63v-94h-47v93z" />
    <glyph glyph-name="percent" unicode="%" horiz-adv-x="981" 
d="M85.5 408q-42.5 52 -42.5 158v41q0 108 41.5 156.5t140.5 48.5q100 0 142 -47.5t42 -154.5v-46q0 -106 -43 -157t-141 -51q-97 0 -139.5 52zM566 810h91l-243 -810h-91zM271.5 482.5q10.5 26.5 10.5 87.5v35q0 41 -3.5 62.5t-15.5 33t-38 11.5q-25 0 -37 -11.5t-15.5 -33
t-3.5 -62.5v-36q0 -61 10.5 -87t45.5 -26q36 0 46.5 26.5zM615.5 49.5q-42.5 51.5 -42.5 157.5v42q0 107 41.5 156t140.5 49t141 -48t42 -155v-45q0 -106 -43 -157t-140 -51t-139.5 51.5zM801 123.5q10 26.5 10 87.5v36q0 42 -3 63t-15 32.5t-38 11.5t-37.5 -11.5t-15 -33
t-3.5 -62.5v-36q0 -61 10.5 -87.5t45.5 -26.5q36 0 46 26.5z" />
    <glyph glyph-name="ampersand" unicode="&#x26;" horiz-adv-x="577" 
d="M94.5 41q-51.5 52 -51.5 139q0 72 29.5 129t85.5 114q-41 72 -61.5 121t-20.5 99q0 78 47 128t129 50q77 0 126 -46t49 -121q0 -47 -17.5 -87.5t-42 -71t-63.5 -70.5l-18 -19l101 -181q13 23 21.5 72.5t10.5 95.5h109q0 -77 -16.5 -137.5t-47.5 -114.5q11 -14 30 -24
t38 -11v-117q-14 -2 -25 -2q-36 0 -67.5 20.5t-56.5 51.5q-56 -70 -152 -70q-85 0 -136.5 52zM286 568.5q19 49.5 19 87.5q0 26 -14.5 41t-36.5 15q-24 0 -37.5 -19t-13.5 -50q0 -64 40 -157q24 33 43 82.5zM316 139l-104 185q-45 -69 -45 -138q0 -41 18 -67t51 -26
q48 0 80 46z" />
    <glyph glyph-name="quotesingle" unicode="'" horiz-adv-x="161" 
d="M24 810h125l-51 -289h-74v289z" />
    <glyph glyph-name="parenleft" unicode="(" horiz-adv-x="330" 
d="M144.5 -115q-50.5 67 -65.5 171t-15 259q0 163 14.5 267.5t65 170t151.5 65.5v-105q-38 0 -57.5 -47t-26 -131t-6.5 -220q0 -133 7 -216.5t26.5 -129.5t56.5 -46v-105q-100 0 -150.5 67z" />
    <glyph glyph-name="parenright" unicode=")" horiz-adv-x="314" 
d="M34 -76q37 0 56.5 46t26.5 129t7 217q0 137 -6.5 220t-26 130.5t-57.5 47.5v104q101 0 151.5 -65.5t65 -170t14.5 -266.5q0 -155 -15 -259.5t-65.5 -171.5t-150.5 -67v106z" />
    <glyph glyph-name="asterisk" unicode="*" horiz-adv-x="418" 
d="M77 507l73 104l-109 42l34 90l100 -54l-12 121h113l-13 -122l101 56l34 -92l-110 -42l74 -103l-90 -53l-53 110l-54 -110z" />
    <glyph glyph-name="plus" unicode="+" horiz-adv-x="441" 
d="M169 369h-143v92h143v157h102v-157h145v-92h-145v-161h-102v161z" />
    <glyph glyph-name="comma" unicode="," horiz-adv-x="227" 
d="M54 -87q68 19 68 87h-79v146h145v-129q-2 -140 -122 -155z" />
    <glyph glyph-name="hyphen" unicode="-" horiz-adv-x="372" 
d="M61 390h251v-99h-251v99z" />
    <glyph glyph-name="period" unicode="." horiz-adv-x="232" 
d="M47 146h144v-146h-144v146z" />
    <glyph glyph-name="slash" unicode="/" horiz-adv-x="411" 
d="M282 810h89l-243 -810h-88z" />
    <glyph glyph-name="zero" unicode="0" horiz-adv-x="543" 
d="M110.5 49.5q-55.5 63.5 -55.5 170.5v363q0 111 54 174.5t163 63.5q108 0 162 -63.5t54 -174.5v-363q0 -106 -56 -170t-160 -64q-106 0 -161.5 63.5zM331 223v357q0 45 -11.5 75t-47.5 30q-38 0 -49 -29.5t-11 -75.5v-357q0 -101 60 -101q59 0 59 101z" />
    <glyph glyph-name="one" unicode="1" horiz-adv-x="391" 
d="M141 650q-9 -5 -30 -12.5t-32 -11.5q-44 -14 -55 -20v115q34 14 82.5 40.5t68.5 48.5h121v-810h-155v650z" />
    <glyph glyph-name="two" unicode="2" horiz-adv-x="506" 
d="M41 109l197 303l15 23q36 56 53.5 93.5t17.5 81.5q0 39 -15 59.5t-44 20.5q-41 0 -57 -32t-16 -88v-37h-151v40q0 114 53.5 180.5t167.5 66.5q105 0 160 -55.5t55 -157.5q0 -62 -23 -111.5t-72 -122.5l-11 -17l-156 -234h240v-122h-414v109z" />
    <glyph glyph-name="three" unicode="3" horiz-adv-x="506" 
d="M89 50q-51 64 -51 181v28h154v-27q1 -62 15 -89t51 -27t50 27.5t13 89.5q0 65 -19.5 96.5t-70.5 32.5q-2 1 -27 1v113h24q53 0 73 28t20 92q0 52 -14.5 77t-51.5 25q-36 0 -49 -27t-14 -80v-36h-154v44q0 106 57 164t160 58q104 0 161 -56t57 -161q0 -69 -28.5 -117
t-73.5 -60q102 -38 102 -191q0 -117 -52 -183.5t-165 -66.5q-116 0 -167 64z" />
    <glyph glyph-name="four" unicode="4" horiz-adv-x="515" 
d="M274 190h-246v120l211 500h179v-503h79v-117h-79v-190h-144v190zM274 307v344l-124 -344h124z" />
    <glyph glyph-name="five" unicode="5" horiz-adv-x="502" 
d="M124 16.5q-46 29.5 -63 83.5t-17 135h150q0 -70 13 -101.5t51 -31.5q30 0 44 20t17.5 55t3.5 99q0 74 -13.5 110.5t-55.5 36.5q-54 0 -69 -73h-133l11 460h372v-133h-246l-8 -179q14 17 48 28.5t72 11.5q83 0 125.5 -67t42.5 -188q0 -96 -17 -159.5t-64.5 -100
t-135.5 -36.5q-82 0 -128 29.5z" />
    <glyph glyph-name="six" unicode="6" horiz-adv-x="530" 
d="M107 61q-54 72 -54 194v288q0 132 48 204.5t170 72.5q108 0 156 -51t49 -154v-14h-146q0 56 -11 78.5t-47 22.5q-25 0 -38 -15t-18.5 -50t-5.5 -99v-82q13 22 41.5 34.5t66.5 12.5q90 0 130.5 -63t40.5 -170q0 -134 -50 -207.5t-167 -73.5q-111 0 -165 72zM321.5 137.5
q12.5 33.5 12.5 106.5q0 50 -3.5 78.5t-17 45.5t-41.5 17q-20 0 -37 -11.5t-25 -25.5v-129q0 -115 63 -115q36 0 48.5 33.5z" />
    <glyph glyph-name="seven" unicode="7" horiz-adv-x="427" 
d="M241 692h-220v118h371v-101l-171 -709h-150z" />
    <glyph glyph-name="eight" unicode="8" horiz-adv-x="516" 
d="M41 234q0 68 24 118t71 74q-37 27 -60 73t-23 111q0 99 52.5 154.5t152.5 55.5q99 0 151 -55t52 -153q0 -68 -22 -114t-59 -72q47 -24 71 -76t24 -123q0 -113 -52 -176t-165 -63q-217 0 -217 246zM315 609q0 44 -14.5 69.5t-42.5 25.5q-29 0 -44 -25.5t-15 -69.5
q0 -125 59 -125q57 0 57 125zM311.5 140.5q11.5 37.5 11.5 97.5q0 55 -13.5 87.5t-51.5 32.5q-39 0 -52.5 -35.5t-13.5 -94.5q0 -54 13.5 -89.5t52.5 -35.5q42 0 53.5 37.5z" />
    <glyph glyph-name="nine" unicode="9" horiz-adv-x="531" 
d="M100.5 40.5q-47.5 51.5 -47.5 155.5v12h146q0 -55 11.5 -78t47.5 -23q25 0 37.5 15t17.5 49.5t5 99.5v82q-13 -22 -41 -34.5t-65 -12.5q-90 0 -131 66t-41 175q0 273 218 273q111 0 164.5 -69t53.5 -190v-295q0 -131 -48.5 -204t-170.5 -73q-109 0 -156.5 51.5zM318 461
v129q0 53 -13 84t-47 31q-36 0 -48 -33.5t-12 -106.5q0 -52 3 -79.5t16.5 -44.5t41.5 -17q37 0 59 37z" />
    <glyph glyph-name="colon" unicode=":" horiz-adv-x="260" 
d="M65 556h143v-143h-143v143zM65 209h143v-145h-143v145z" />
    <glyph glyph-name="semicolon" unicode=";" horiz-adv-x="270" 
d="M65 573h143v-146h-143v146zM76 -51q69 11 69 79h-79v145h144v-129q0 -145 -122 -146z" />
    <glyph glyph-name="less" unicode="&#x3c;" horiz-adv-x="393" 
d="M31 300v122l304 214v-134l-195 -140l195 -142v-133z" />
    <glyph glyph-name="equal" unicode="=" horiz-adv-x="437" 
d="M61 536h315v-95h-315v95zM61 349h315v-95h-315v95z" />
    <glyph glyph-name="greater" unicode="&#x3e;" horiz-adv-x="393" 
d="M55 220l196 142l-196 140v134l305 -214v-121l-305 -214v133z" />
    <glyph glyph-name="question" unicode="?" horiz-adv-x="485" 
d="M136 339q75 59 119.5 128.5t44.5 145.5q0 78 -63 78q-27 0 -42.5 -16t-15.5 -43q0 -24 10 -54l-137 -31q-15 45 -15 87q0 87 53 136.5t150 49.5q100 0 154 -53t54 -151q0 -172 -175 -307v-98h-137v128zM131 145h148v-145h-148v145z" />
    <glyph glyph-name="at" unicode="@" horiz-adv-x="940" 
d="M164 -23q-109 105 -109 297q0 31 3 62q10 146 71 252.5t165 164t242 57.5q123 0 206.5 -47.5t124.5 -131t41 -191.5q0 -17 -2 -49q-5 -73 -34.5 -139.5t-84.5 -109.5t-132 -43q-44 0 -79 20t-44 58q-13 -31 -42 -51.5t-68 -20.5q-71 0 -112.5 54t-41.5 136q0 68 26 141.5
t78 124t126 50.5q28 0 42.5 -16.5t29.5 -43.5l10 54h119l-46 -336q-4 -24 -4 -46q0 -35 17 -39q3 -1 10 -1q29 0 56.5 27t46 74.5t22.5 103.5q2 32 2 48q0 131 -68 205.5t-210 74.5q-109 0 -185.5 -49t-118.5 -134t-50 -195q-3 -33 -3 -62q0 -150 78.5 -229.5t239.5 -79.5
q40 0 95.5 9t99.5 23l18 -95q-132 -32 -227 -32q-199 0 -308 105zM501 221.5q18 10.5 25 31.5l32 235q-2 6 -12 9.5t-18 3.5q-38 0 -67 -28.5t-44.5 -73.5t-16.5 -94q0 -44 16.5 -71.5t51.5 -24.5q15 2 33 12.5z" />
    <glyph glyph-name="A" unicode="A" horiz-adv-x="538" 
d="M178 810h183l156 -810h-152l-30 178h-128l-31 -178h-155zM319 280l-49 326l-48 -326h97z" />
    <glyph glyph-name="B" unicode="B" horiz-adv-x="575" 
d="M61 810h206q118 0 183 -45.5t65 -164.5q0 -72 -30.5 -113.5t-87.5 -51.5q71 -10 106.5 -60t35.5 -137q0 -238 -236 -238h-242v810zM267 483q60 0 82 27t22 86q0 54 -28 77.5t-87 23.5h-31v-214h42zM272 116q60 0 84.5 30t24.5 95q0 70 -25.5 100.5t-86.5 30.5h-44v-256
h47z" />
    <glyph glyph-name="C" unicode="C" horiz-adv-x="553" 
d="M103 58.5q-54 69.5 -54 200.5v290q0 134 53.5 202.5t183.5 68.5q124 0 175.5 -60.5t51.5 -173.5v-68h-160v75q0 36 -3.5 58t-18 36.5t-44.5 14.5q-45 0 -58 -29t-13 -85v-368q0 -57 15 -85t56 -28q42 0 54 28.5t12 84.5v79h160v-67q0 -116 -51 -179.5t-176 -63.5
q-129 0 -183 69.5z" />
    <glyph glyph-name="D" unicode="D" horiz-adv-x="573" 
d="M61 810h198q102 0 159.5 -26.5t82 -81.5t24.5 -146v-295q0 -93 -24 -149.5t-81 -84t-157 -27.5h-202v810zM261 115q43 0 63.5 13.5t26 39.5t5.5 75v335q0 46 -6.5 69.5t-26.5 35t-63 11.5h-35v-579h36z" />
    <glyph glyph-name="E" unicode="E" horiz-adv-x="439" 
d="M61 810h353v-114h-189v-215h146v-115h-146v-254h191v-112h-355v810z" />
    <glyph glyph-name="F" unicode="F" horiz-adv-x="425" 
d="M61 810h342v-113h-178v-218h151v-115h-151v-364h-164v810z" />
    <glyph glyph-name="G" unicode="G" horiz-adv-x="572" 
d="M99.5 60.5q-50.5 72.5 -50.5 207.5v271q0 138 53.5 209.5t183.5 71.5q125 0 178 -61t53 -176v-47h-160v57q0 56 -12.5 82.5t-56.5 26.5q-45 0 -58 -30t-13 -87v-360q0 -57 16 -87.5t60 -30.5q43 0 60.5 32.5t17.5 90.5v86h-79v100h228v-416h-108l-11 72q-37 -84 -133 -84
q-118 0 -168.5 72.5z" />
    <glyph glyph-name="H" unicode="H" horiz-adv-x="599" 
d="M63 810h165v-332h143v332h165v-810h-165v359h-143v-359h-165v810z" />
    <glyph glyph-name="I" unicode="I" horiz-adv-x="289" 
d="M63 810h164v-810h-164v810z" />
    <glyph glyph-name="J" unicode="J" horiz-adv-x="339" 
d="M12 95q41 0 62 7t30 26t9 58v624h165v-631q0 -69 -16.5 -112.5t-57.5 -65t-112 -21.5h-80v115z" />
    <glyph glyph-name="K" unicode="K" horiz-adv-x="552" 
d="M61 810h164v-342l147 342h160l-152 -364l164 -446h-167l-125 362l-27 -44v-318h-164v810z" />
    <glyph glyph-name="L" unicode="L" horiz-adv-x="433" 
d="M61 810h164v-698h191v-112h-355v810z" />
    <glyph glyph-name="M" unicode="M" horiz-adv-x="695" 
d="M72 810h175l100 -511l106 511h169l15 -810h-120l-13 550l-104 -550h-102l-107 553l-12 -553h-121z" />
    <glyph glyph-name="N" unicode="N" horiz-adv-x="554" 
d="M61 810h115l180 -421v421h137v-810h-111l-180 448v-448h-141v810z" />
    <glyph glyph-name="O" unicode="O" horiz-adv-x="576" 
d="M104 56.5q-55 67.5 -55 198.5v302q0 131 55 197t184 66q128 0 183.5 -66.5t55.5 -196.5v-303q0 -130 -55.5 -197.5t-183.5 -67.5q-129 0 -184 67.5zM344.5 135.5q14.5 28.5 14.5 78.5v383q0 50 -14.5 77.5t-56.5 27.5t-56.5 -27.5t-14.5 -77.5v-383q0 -51 14 -79t57 -28
q42 0 56.5 28.5z" />
    <glyph glyph-name="P" unicode="P" horiz-adv-x="551" 
d="M61 810h257q210 0 210 -233q0 -123 -60 -174.5t-167 -51.5h-76v-351h-164v810zM284 467q53 0 71 25t18 88q0 41 -6 64.5t-25.5 36.5t-58.5 13h-58v-227h59z" />
    <glyph glyph-name="Q" unicode="Q" horiz-adv-x="576" 
d="M383 -100q-48 44 -78 90q-6 -1 -17 -1q-129 0 -184 67.5t-55 198.5v302q0 131 55 197t184 66q128 0 183.5 -66.5t55.5 -196.5v-303q0 -90 -26 -150t-83 -88q50 -56 82 -74l-33 -102q-36 16 -84 60zM345 135.5q14 28.5 14 78.5v383q0 50 -14 77.5t-57 27.5
q-44 0 -57.5 -27t-13.5 -78v-383q0 -51 14 -79t57 -28t57 28.5z" />
    <glyph glyph-name="R" unicode="R" horiz-adv-x="583" 
d="M61 810h210q131 0 197 -48t66 -166q0 -79 -22 -127.5t-78 -73.5l112 -395h-169l-92 367h-60v-367h-164v810zM274 465q58 0 81.5 28.5t23.5 89.5q0 60 -21 88t-76 28h-57v-234h49z" />
    <glyph glyph-name="S" unicode="S" horiz-adv-x="505" 
d="M102 50.5q-56 61.5 -61 190.5l142 24q2 -77 21.5 -113.5t58.5 -36.5q29 0 42 18.5t13 47.5q0 48 -21.5 81.5t-67.5 73.5l-84 73q-50 42 -76.5 90t-26.5 115q0 99 58.5 152.5t161.5 53.5q110 0 153 -63.5t49 -161.5l-143 -21q-2 64 -14.5 94.5t-49.5 30.5q-27 0 -42 -20.5
t-15 -48.5q0 -40 17.5 -67.5t55.5 -60.5l82 -72q58 -51 91 -107.5t33 -132.5q0 -58 -26 -103.5t-73.5 -71.5t-109.5 -26q-112 0 -168 61.5z" />
    <glyph glyph-name="T" unicode="T" horiz-adv-x="438" 
d="M137 688h-125v122h414v-122h-123v-688h-166v688z" />
    <glyph glyph-name="U" unicode="U" horiz-adv-x="578" 
d="M148 19.5q-51 30.5 -72 88.5t-21 148v554h162v-577q0 -58 14 -91t58 -33t58 33t14 91v577h163v-554q0 -90 -21 -148t-72.5 -88.5t-141.5 -30.5t-141 30.5z" />
    <glyph glyph-name="V" unicode="V" horiz-adv-x="521" 
d="M22 810h143l96 -560l90 560h149l-154 -810h-170z" />
    <glyph glyph-name="W" unicode="W" horiz-adv-x="704" 
d="M29 810h139l57 -495l71 494h111l74 -492l57 493h137l-104 -810h-141l-78 513l-75 -513h-143z" />
    <glyph glyph-name="X" unicode="X" horiz-adv-x="508" 
d="M168 434l-154 376h156l96 -234l80 234h140l-147 -415l161 -395h-154l-106 256l-93 -256h-139z" />
    <glyph glyph-name="Y" unicode="Y" horiz-adv-x="491" 
d="M167 321l-158 489h155l87 -285l80 285h151l-156 -489v-321h-159v321z" />
    <glyph glyph-name="Z" unicode="Z" horiz-adv-x="429" 
d="M31 102l207 595h-197v113h360v-90l-211 -608h213v-112h-372v102z" />
    <glyph glyph-name="bracketleft" unicode="[" horiz-adv-x="334" 
d="M54 810h245v-61h-122v-873h121v-61h-244v995z" />
    <glyph glyph-name="backslash" unicode="\" horiz-adv-x="411" 
d="M40 810h89l242 -810h-89z" />
    <glyph glyph-name="bracketright" unicode="]" horiz-adv-x="321" 
d="M23 -124h121l-1 873h-121v61h245v-995h-244v61z" />
    <glyph glyph-name="asciicircum" unicode="^" horiz-adv-x="469" 
d="M172 810h125l142 -332h-131l-74 205l-74 -205h-129z" />
    <glyph glyph-name="underscore" unicode="_" horiz-adv-x="363" 
d="M0 -57h363v-103h-363v103z" />
    <glyph glyph-name="grave" unicode="`" horiz-adv-x="301" 
d="M44 810h154l60 -201h-92z" />
    <glyph glyph-name="a" unicode="a" horiz-adv-x="466" 
d="M98 10q-30 20 -45.5 52.5t-15.5 67.5q0 67 33 110t79.5 67t123.5 52v54q0 31 -8.5 47t-30.5 16t-31 -14t-11 -40l-3 -40l-142 6q4 103 53 151.5t147 48.5q85 0 128 -47t43 -129v-269q0 -68 10 -143h-135q-4 29 -13 83q-12 -40 -40.5 -66.5t-71.5 -26.5q-40 0 -70 20z
M250.5 107q13.5 10 22.5 23v159q-47 -27 -72 -56t-25 -71q0 -31 12 -48t34 -17q15 0 28.5 10z" />
    <glyph glyph-name="b" unicode="b" horiz-adv-x="493" 
d="M203 43v-43h-151v810h151v-275q58 53 123 53t95 -52.5t30 -128.5v-226q0 -86 -33 -138.5t-97 -52.5q-58 0 -118 53zM290 113.5q10 22.5 10 61.5v242q0 76 -44 76q-26 0 -53 -22v-362q25 -18 52 -18q25 0 35 22.5z" />
    <glyph glyph-name="c" unicode="c" horiz-adv-x="456" 
d="M89 43q-49 53 -49 149v195q0 97 49 149t144 52q93 0 140.5 -44t47.5 -132v-55h-145v59q0 38 -10 52.5t-32 14.5q-24 0 -33.5 -18t-9.5 -63v-228q0 -45 10.5 -62t32.5 -17q23 0 32.5 16t9.5 51v70h145v-64q0 -87 -48 -132.5t-140 -45.5q-95 0 -144 53z" />
    <glyph glyph-name="d" unicode="d" horiz-adv-x="490" 
d="M42 181v212q0 89 34 142t102 53q57 0 110 -46v268h151v-810h-151v43q-53 -53 -110 -53q-136 0 -136 191zM288 107v368q-26 15 -48 15q-24 0 -35 -20.5t-11 -54.5v-245q0 -80 46 -80q22 0 48 17z" />
    <glyph glyph-name="e" unicode="e" horiz-adv-x="459" 
d="M89.5 42q-49.5 52 -49.5 150v194q0 98 50 150t144 52q97 0 142 -52t45 -154v-101h-231v-112q0 -37 11.5 -54t33.5 -17q45 0 45 65v56h140v-50q0 -87 -48 -133t-138 -46q-95 0 -144.5 52zM280 353v56q0 38 -11 54.5t-35 16.5q-23 0 -33.5 -18t-10.5 -64v-45h90z" />
    <glyph glyph-name="f" unicode="f" horiz-adv-x="313" 
d="M75 475h-58v103h58v40q0 58 11 94t43.5 56t96.5 20q41 0 77 -5v-112q-25 5 -36 5q-41 0 -41 -51v-47h77v-103h-77v-475h-151v475z" />
    <glyph glyph-name="g" unicode="g" horiz-adv-x="487" 
d="M79.5 -166q-55.5 29 -55.5 86q0 76 89 115q-76 20 -76 85q0 32 15.5 57t48.5 54q-29 25 -43.5 62.5t-14.5 91.5q0 99 50.5 151t146.5 52q89 0 133 -50q10 17 29 33t43 27l20 10l36 -76q-15 -5 -45 -17.5t-47 -22.5q10 -21 15.5 -50t5.5 -58q0 -95 -47.5 -147t-142.5 -52
q-50 0 -89 14q-16 -20 -16 -37q0 -12 12 -19t41 -10l139 -15q142 -16 142 -149q0 -83 -56.5 -123.5t-181.5 -40.5q-96 0 -151.5 29zM280 300.5q10 23.5 10 84.5q0 62 -10 86.5t-40 24.5t-40.5 -25t-10.5 -86q0 -58 10.5 -83t40.5 -25t40 23.5zM335.5 -74.5
q27.5 10.5 27.5 37.5q0 23 -18 33.5t-67 14.5l-104 11q-17 -15 -26.5 -28.5t-9.5 -29.5q0 -25 26 -37t86 -12q58 0 85.5 10.5z" />
    <glyph glyph-name="h" unicode="h" horiz-adv-x="496" 
d="M53 810h151v-285q63 63 142 63q49 0 75 -37t26 -95v-456h-150v432q0 24 -8 35.5t-27 11.5q-25 0 -58 -25v-454h-151v810z" />
    <glyph glyph-name="i" unicode="i" horiz-adv-x="258" 
d="M53 786h152v-113h-152v113zM54 578h151v-578h-151v578z" />
    <glyph glyph-name="j" unicode="j" horiz-adv-x="267" 
d="M65 786h152v-113h-152v113zM-11 -161v108q27 -3 29 -3q47 0 47 53v581h151v-599q0 -70 -38 -111t-109 -41q-44 0 -80 12z" />
    <glyph glyph-name="k" unicode="k" horiz-adv-x="517" 
d="M52 810h150v-456l145 224h168l-150 -235l148 -343h-163l-103 280l-45 -60v-220h-150v810z" />
    <glyph glyph-name="l" unicode="l" horiz-adv-x="264" 
d="M59 810h150v-810h-150v810z" />
    <glyph glyph-name="m" unicode="m" horiz-adv-x="737" 
d="M52 578h147v-48q58 59 136 59q34 0 59.5 -17.5t38.5 -52.5q62 70 147 70q50 0 79.5 -36.5t29.5 -102.5v-450h-146v435q0 28 -9.5 39.5t-28.5 11.5q-13 0 -29.5 -7t-31.5 -20v-9v-450h-146v435q0 28 -9.5 39.5t-28.5 11.5q-13 0 -29.5 -7t-31.5 -20v-459h-147v578z" />
    <glyph glyph-name="n" unicode="n" horiz-adv-x="493" 
d="M52 578h150v-58q70 68 140 68q50 0 76.5 -37t26.5 -95v-456h-151v432q0 24 -8 35.5t-27 11.5q-23 0 -57 -24v-455h-150v578z" />
    <glyph glyph-name="o" unicode="o" 
d="M90.5 40q-50.5 50 -50.5 145v208q0 95 50.5 145t144.5 50t144.5 -50t50.5 -145v-208q0 -95 -50.5 -145t-144.5 -50t-144.5 50zM271.5 112.5q9.5 20.5 9.5 61.5v229q0 41 -9.5 62t-35.5 21q-27 0 -37 -21.5t-10 -61.5v-229q0 -40 10 -61t37 -21q26 0 35.5 20.5z" />
    <glyph glyph-name="p" unicode="p" horiz-adv-x="492" 
d="M52 578h150v-43q58 53 123 53q65 -1 95 -53t30 -128v-226q0 -86 -33 -138.5t-97 -52.5q-57 0 -118 54v-234h-150v768zM299 175v242q0 76 -45 76q-24 0 -52 -22v-363q27 -17 51 -17q46 0 46 84z" />
    <glyph glyph-name="q" unicode="q" horiz-adv-x="491" 
d="M290 46q-54 -56 -111 -56q-137 0 -137 191v212q0 89 34 142t102 53q57 0 112 -48v38h151v-768h-151v236zM290 108v365q-26 17 -49 17q-24 0 -35.5 -20.5t-11.5 -54.5v-245q0 -80 47 -80q22 0 49 18z" />
    <glyph glyph-name="r" unicode="r" horiz-adv-x="370" 
d="M54 578h151v-93q30 52 58.5 76t66.5 24q9 0 23 -2v-154q-26 12 -54 12q-55 0 -94 -56v-385h-151v578z" />
    <glyph glyph-name="s" unicode="s" horiz-adv-x="413" 
d="M96 26.5q-49 36.5 -75 112.5l106 44q30 -89 85 -89q21 0 31.5 9.5t10.5 26.5q0 23 -14.5 41t-57.5 55l-54 46q-48 41 -71 76t-23 84q0 46 23 81.5t62.5 55t86.5 19.5q70 0 115.5 -39.5t62.5 -110.5l-98 -44q-9 36 -29 61.5t-47 25.5q-18 0 -29 -10.5t-11 -27.5t17 -36.5
t53 -50.5l54 -48q47 -40 73.5 -77t26.5 -86q0 -48 -23.5 -83t-63.5 -53.5t-87 -18.5q-75 0 -124 36.5z" />
    <glyph glyph-name="t" unicode="t" horiz-adv-x="344" 
d="M104.5 32q-33.5 39 -33.5 119v328h-57v99h57v174h153v-174h84v-99h-84v-313q0 -51 51 -51q27 0 43 4v-118q-53 -8 -93 -8q-87 0 -120.5 39z" />
    <glyph glyph-name="u" unicode="u" horiz-adv-x="490" 
d="M72.5 27q-26.5 37 -26.5 95v456h151v-435q0 -24 8.5 -36t28.5 -12q21 0 53 22v461h151v-578h-151v54q-69 -64 -138 -64q-50 0 -76.5 37z" />
    <glyph glyph-name="v" unicode="v" horiz-adv-x="414" 
d="M11 578h146l53 -389l50 389h145l-118 -578h-160z" />
    <glyph glyph-name="w" unicode="w" horiz-adv-x="595" 
d="M23 578h125l46 -349l52 349h110l47 -354l51 354h119l-89 -578h-129l-56 343l-61 -343h-129z" />
    <glyph glyph-name="x" unicode="x" horiz-adv-x="431" 
d="M135 314l-119 264h150l68 -148l59 148h121l-118 -286l131 -292h-152l-75 167l-62 -167h-128z" />
    <glyph glyph-name="y" unicode="y" horiz-adv-x="436" 
d="M62 -57q51 0 73.5 10.5t22.5 37.5q0 13 -6.5 41t-14.5 58l-132 488h144l73 -355l60 355h144l-134 -596q-18 -80 -67 -112.5t-131 -32.5h-32v106z" />
    <glyph glyph-name="z" unicode="z" horiz-adv-x="382" 
d="M34 98l163 370h-149v110h307v-90l-164 -377h165v-111h-322v98z" />
    <glyph glyph-name="braceleft" unicode="{" horiz-adv-x="359" 
d="M182.5 -173.5q-45.5 18.5 -59 60.5t-13.5 132v92q0 73 -4 102.5t-16.5 39t-43.5 9.5v108q31 0 43.5 10t16.5 39t4 102v93q0 90 13.5 132t59 61t146.5 19v-103q-37 0 -52.5 -7.5t-20.5 -30.5t-5 -78v-104q0 -87 -18 -131.5t-63 -55.5q45 -10 63 -54.5t18 -131.5v-104
q0 -55 5 -78t20.5 -30.5t52.5 -7.5v-102q-101 0 -146.5 18.5z" />
    <glyph glyph-name="bar" unicode="|" horiz-adv-x="257" 
d="M66 810h126v-983h-127z" />
    <glyph glyph-name="braceright" unicode="}" horiz-adv-x="367" 
d="M39 -90q36 0 51.5 7.5t20.5 30.5t5 78v104q0 87 18 131.5t64 54.5q-46 11 -64 55.5t-18 131.5v104q0 55 -5 78t-20.5 30.5t-51.5 7.5v103q100 0 146 -19t59.5 -61.5t13.5 -131.5v-93q0 -73 3.5 -102t16 -39t43.5 -10v-108q-31 0 -43.5 -9.5t-16 -38.5t-3.5 -103v-92
q0 -90 -13.5 -132t-59 -60.5t-146.5 -18.5v102z" />
    <glyph glyph-name="asciitilde" unicode="~" horiz-adv-x="474" 
d="M279 347.5q-22 8.5 -53 24.5q-28 13 -42.5 19t-26.5 6q-13 0 -33 -12t-36 -33l-49 64q22 34 56 61.5t62 27.5q20 0 40.5 -8t55.5 -25q25 -13 39.5 -19t25.5 -6q25 0 69 46l53 -56q-19 -37 -53.5 -67.5t-66.5 -30.5q-19 0 -41 8.5z" />
    <glyph glyph-name="uni00A0" unicode="&#xa0;" horiz-adv-x="250" 
 />
    <glyph glyph-name="exclamdown" unicode="&#xa1;" horiz-adv-x="231" 
d="M49 648h144v-143h-144v143zM94 448h52l44 -608h-150z" />
    <glyph glyph-name="cent" unicode="&#xa2;" horiz-adv-x="442" 
d="M205 -8q-82 7 -124 59t-42 141v195q0 89 42 140.5t124 58.5v111h40v-110q174 -6 174 -175v-55h-144v56q0 38 -10 52.5t-32 14.5q-24 0 -33.5 -17.5t-9.5 -63.5v-222q0 -45 10 -62t33 -17q22 0 32 16t10 51v67h144v-64q0 -84 -44 -129t-130 -48v-111h-40v112z" />
    <glyph glyph-name="sterling" unicode="&#xa3;" 
d="M17 84l60 27v217h-60v117h60v91q0 92 13 151.5t54.5 96t122.5 36.5q99 0 136.5 -54t38.5 -156v-26h-129q0 54 -8.5 82t-36.5 28q-29 0 -37 -31t-8 -100v-119h119v-116h-119v-202h214v-126h-420v84z" />
    <glyph glyph-name="currency" unicode="&#xa4;" horiz-adv-x="554" 
d="M40 201l80 79q-26 28 -40.5 65t-14.5 78q0 40 14.5 77t40.5 66l-80 79l15 15l79 -79q28 27 65 41.5t78 14.5t78 -14.5t65 -41.5l79 79l15 -15l-79 -79q25 -29 39 -65.5t14 -77.5t-14 -78t-40 -65l80 -79l-15 -15l-79 79q-28 -27 -65.5 -42t-77.5 -14q-41 -1 -77.5 14
t-65.5 42l-79 -79zM360.5 276q37.5 23 59 62t21.5 85t-21.5 85t-59 61.5t-83.5 22.5t-83.5 -22.5t-59 -61.5t-21.5 -85t21.5 -85t59 -62t83.5 -23t83.5 23z" />
    <glyph glyph-name="yen" unicode="&#xa5;" 
d="M161 119h-85v78h85v66h-85v80h67l-140 467h155l87 -328l80 328h151l-138 -467h66v-80h-85v-66h85v-78h-85v-119h-158v119z" />
    <glyph glyph-name="brokenbar" unicode="&#xa6;" horiz-adv-x="216" 
d="M54 810h108v-409h-108v409zM54 233h108v-408h-108v408z" />
    <glyph glyph-name="section" unicode="&#xa7;" horiz-adv-x="463" 
d="M110 37.5q-45 44.5 -63 117.5l102 28q11 -32 32.5 -57t50.5 -25q26 0 41.5 13.5t17.5 36.5q1 26 -15 46t-56 45l-94 60q-37 24 -58 53t-21 70q0 46 24.5 78.5t61.5 45.5q-36 21 -62.5 57.5t-26.5 77.5q0 69 53 109t133 40q74 0 121 -44.5t65 -118.5l-101 -26
q-11 36 -29.5 59.5t-50.5 23.5q-26 0 -41 -12.5t-15 -36.5t15.5 -39t43.5 -33l86 -54q87 -57 87 -137q0 -41 -20 -70t-58 -52q40 -33 60.5 -65t20.5 -73q0 -74 -49.5 -118t-135.5 -44q-74 0 -119 44.5zM294 404q1 12 -6.5 26t-24.5 25l-51 31q-19 -6 -31.5 -20.5
t-12.5 -32.5q0 -12 6 -23t16 -17l63 -39q41 19 41 50z" />
    <glyph glyph-name="dieresis" unicode="&#xa8;" horiz-adv-x="420" 
d="M44 810h124v-140h-124v140zM250 810h126v-140h-126v140z" />
    <glyph glyph-name="copyright" unicode="&#xa9;" horiz-adv-x="879" 
d="M215 47.5q-90 60.5 -132.5 156.5t-42.5 204q0 107 42.5 203t132.5 156t225 60q134 0 223.5 -60t132 -155.5t42.5 -203.5t-42 -204t-131.5 -156.5t-224.5 -60.5t-225 60.5zM637.5 81.5q79.5 53.5 118 139.5t38.5 186t-38.5 186t-118 138.5t-196.5 52.5t-196.5 -52.5
t-118 -138.5t-38.5 -186t38.5 -186t118 -139.5t196.5 -53.5t196.5 53.5zM282 175.5q-53 52.5 -53 147.5v176q0 96 53 147.5t157 51.5q204 0 204 -173v-50h-156v51q0 38 -11.5 53t-35.5 15q-26 0 -37 -18t-11 -64v-203q0 -46 11.5 -63t36.5 -17t36 15.5t11 51.5v58h156v-55
q0 -86 -52 -131t-152 -45q-104 0 -157 52.5z" />
    <glyph glyph-name="ordfeminine" unicode="&#xaa;" horiz-adv-x="474" 
d="M90.5 348q-29.5 33 -29.5 85q0 53 29.5 87t72.5 53.5t114 42.5v54q0 52 -32 52q-20 0 -28 -17t-12 -59l-129 3q1 85 48 128.5t131 43.5q81 0 119 -43.5t38 -121.5v-333h-119l-7 66q-15 -33 -43.5 -53.5t-69.5 -20.5q-53 0 -82.5 33zM256.5 416.5q12.5 8.5 20.5 21.5v125
q-39 -18 -63 -47t-24 -59q0 -23 11.5 -36t29.5 -13q13 0 25.5 8.5z" />
    <glyph glyph-name="guillemotleft" unicode="&#xab;" horiz-adv-x="481" 
d="M36 271v55l189 233v-152l-97 -109l97 -109v-151zM247 271v55l190 233v-152l-98 -109l98 -109v-151z" />
    <glyph glyph-name="logicalnot" unicode="&#xac;" horiz-adv-x="475" 
d="M357 364h-312v103h387v-251h-75v148z" />
    <glyph glyph-name="uni00AD" unicode="&#xad;" horiz-adv-x="366" 
d="M63 403h246v-99h-246v99z" />
    <glyph glyph-name="registered" unicode="&#xae;" horiz-adv-x="890" 
d="M221.5 46.5q-89.5 60.5 -132 155.5t-42.5 202t42.5 202.5t132 155.5t223.5 60t223.5 -60t132 -155.5t42.5 -202.5t-42 -202.5t-131.5 -155.5t-224.5 -60q-134 0 -223.5 60.5zM632 90.5q76 51.5 113 134.5t37 179t-37 179.5t-112.5 134.5t-187.5 51q-113 0 -189.5 -51
t-113 -134t-36.5 -180q0 -96 36.5 -179t113 -134.5t189.5 -51.5q111 0 187 51.5zM280 663h164q90 0 135 -32.5t45 -108.5q0 -49 -17 -79t-57 -48l89 -244h-129l-72 220h-35v-220h-123v512zM428 433q44 0 61.5 20t17.5 62q0 74 -66 74h-38v-156h25z" />
    <glyph glyph-name="macron" unicode="&#xaf;" horiz-adv-x="350" 
d="M55 810h240v-74h-240v74z" />
    <glyph glyph-name="degree" unicode="&#xb0;" horiz-adv-x="521" 
d="M119.5 488.5q-52.5 52.5 -52.5 140.5q0 87 53 139t140 52q88 0 141.5 -52t53.5 -139q0 -88 -53 -140.5t-142 -52.5q-88 0 -140.5 52.5zM330.5 551q25.5 30 25.5 78t-25 77t-71 29q-45 0 -70.5 -29t-25.5 -77t25.5 -78t70.5 -30t70.5 30z" />
    <glyph glyph-name="plusminus" unicode="&#xb1;" horiz-adv-x="458" 
d="M181 304h-118v92h118v121h97v-121h118v-92h-118v-121h-97v121zM63 95h333v-95h-333v95z" />
    <glyph glyph-name="uni00B2" unicode="&#xb2;" horiz-adv-x="463" 
d="M80 509l117 120q46 46 63.5 73t17.5 54q0 24 -10.5 36.5t-30.5 12.5q-27 0 -38 -21t-11 -64h-110v16q0 73 39.5 117.5t121.5 44.5q70 0 110 -37.5t40 -104.5q0 -48 -21.5 -85t-68.5 -84l-63 -63h157v-91h-313v76z" />
    <glyph glyph-name="uni00B3" unicode="&#xb3;" horiz-adv-x="464" 
d="M114.5 458.5q-35.5 35.5 -35.5 100.5v16h110v-4q0 -28 11 -41.5t35 -13.5q44 0 44 51q0 30 -13.5 45t-45.5 15h-26v70h23q30 0 44 14t14 43q0 51 -41 51q-45 0 -45 -55v-4h-110v16q0 66 40.5 101t114.5 35q71 0 111.5 -32t40.5 -92q0 -40 -19 -67.5t-47 -38.5
q69 -23 69 -110q0 -64 -41 -99.5t-114 -35.5q-84 0 -119.5 35.5z" />
    <glyph glyph-name="acute" unicode="&#xb4;" horiz-adv-x="301" 
d="M115 810h154l-123 -201h-92z" />
    <glyph glyph-name="uni00B5" unicode="&#xb5;" horiz-adv-x="481" 
d="M43 578h151v-431q0 -25 7.5 -36.5t27.5 -11.5q23 0 53 22v457h151v-578h-151v48q-32 -33 -64 -45q-11 -4 -23 -4v-183h-151z" />
    <glyph glyph-name="paragraph" unicode="&#xb6;" horiz-adv-x="515" 
d="M190 495q-71 2 -113.5 43t-42.5 114q0 83 53 120.5t140 37.5h221v-906h-86v822h-81v-822h-91v591z" />
    <glyph glyph-name="periodcentered" unicode="&#xb7;" horiz-adv-x="215" 
d="M37 448h144v-143h-144v143z" />
    <glyph glyph-name="cedilla" unicode="&#xb8;" horiz-adv-x="353" 
d="M68 -257v67q30 -8 56 -8q28 0 45 8.5t17 27.5q0 25 -26 37.5t-65 15.5v109h58v-64q62 0 97 -25.5t35 -74.5q0 -52 -40.5 -78t-102.5 -26q-36 0 -74 11z" />
    <glyph glyph-name="uni00B9" unicode="&#xb9;" horiz-adv-x="369" 
d="M160 760l-92 -36v98l131 66h74v-455h-113v327z" />
    <glyph glyph-name="ordmasculine" unicode="&#xba;" horiz-adv-x="474" 
d="M112 357q-44 42 -44 121v181q0 79 44 121t125 42q79 0 124 -43t45 -120v-181q0 -78 -45 -120.5t-124 -42.5q-81 0 -125 42zM271 427q10 19 10 54v175q0 36 -10 54t-35 18t-35 -18.5t-10 -53.5v-175q0 -35 10 -54t35 -19t35 19z" />
    <glyph glyph-name="guillemotright" unicode="&#xbb;" horiz-adv-x="491" 
d="M47 189l102 110l-102 108v152l194 -233v-55l-194 -233v151zM259 189l101 110l-101 108v152l193 -233v-55l-193 -233v151z" />
    <glyph glyph-name="onequarter" unicode="&#xbc;" horiz-adv-x="872" 
d="M138 682l-92 -36v98l131 66h74v-455h-113v327zM563 810h96l-383 -810h-96zM639 102h-176v71l195 282h93v-280h44v-73h-44v-102h-112v102zM639 175l-1 136l-92 -136h93z" />
    <glyph glyph-name="onehalf" unicode="&#xbd;" horiz-adv-x="906" 
d="M124 682l-92 -36v98l131 66h74v-455h-113v327zM550 810h96l-383 -810h-96zM533 76l117 120q46 46 63.5 73t17.5 54q0 24 -10.5 36.5t-30.5 12.5q-27 0 -38 -21t-11 -64h-110v16q0 73 39.5 117.5t121.5 44.5q70 0 110 -37.5t40 -104.5q0 -48 -21.5 -85t-68.5 -84l-63 -63
h157v-91h-313v76z" />
    <glyph glyph-name="threequarters" unicode="&#xbe;" horiz-adv-x="912" 
d="M94.5 380.5q-35.5 35.5 -35.5 100.5v16h110v-4q0 -28 11 -41.5t35 -13.5q44 0 44 51q0 30 -13.5 45t-45.5 15h-26v70h23q30 0 44 14t14 43q0 51 -41 51q-45 0 -45 -55v-4h-110v16q0 66 40.5 101t114.5 35q71 0 111.5 -32t40.5 -92q0 -40 -19 -67.5t-47 -38.5
q69 -23 69 -110q0 -64 -41 -99.5t-114 -35.5q-84 0 -119.5 35.5zM636 810h96l-383 -810h-96zM712 102h-176v71l195 282h93v-280h44v-73h-44v-102h-112v102zM712 175l-1 136l-92 -136h93z" />
    <glyph glyph-name="questiondown" unicode="&#xbf;" horiz-adv-x="485" 
d="M348 300q-75 -59 -119.5 -128.5t-44.5 -145.5q0 -78 63 -78q27 0 42.5 16t15.5 43q0 24 -10 54l137 31q15 -45 15 -87q0 -87 -53 -136.5t-150 -49.5q-100 0 -154 53t-54 151q0 172 175 307v98h137v-128zM353 494h-148v145h148v-145z" />
    <glyph glyph-name="Agrave" unicode="&#xc0;" horiz-adv-x="538" 
d="M178 810h183l156 -810h-152l-30 178h-128l-31 -178h-155zM319 280l-49 326l-48 -326h97zM103 1071h155l60 -201h-91z" />
    <glyph glyph-name="Aacute" unicode="&#xc1;" horiz-adv-x="538" 
d="M178 810h183l156 -810h-152l-30 178h-128l-31 -178h-155zM319 280l-49 326l-48 -326h97zM283 1071h154l-123 -201h-92z" />
    <glyph glyph-name="Acircumflex" unicode="&#xc2;" horiz-adv-x="538" 
d="M178 810h183l156 -810h-152l-30 178h-128l-31 -178h-155zM319 280l-49 326l-48 -326h97zM205 1066h128l95 -188h-111l-48 120l-47 -120h-110z" />
    <glyph glyph-name="Atilde" unicode="&#xc3;" horiz-adv-x="538" 
d="M178 810h183l156 -810h-152l-30 178h-128l-31 -178h-155zM319 280l-49 326l-48 -326h97zM315.5 913.5q-16.5 6.5 -37.5 19.5q-34 21 -54 21q-36 0 -36 -41h-74q-2 135 87 135q17 0 32.5 -6t34.5 -18q18 -10 31 -15.5t27 -5.5q31 0 31 39h69q0 -60 -15.5 -97.5
t-60.5 -37.5q-18 0 -34.5 6.5z" />
    <glyph glyph-name="Adieresis" unicode="&#xc4;" horiz-adv-x="538" 
d="M178 810h183l156 -810h-152l-30 178h-128l-31 -178h-155zM319 280l-49 326l-48 -326h97zM103 1042h125v-140h-125v140zM311 1042h126v-140h-126v140z" />
    <glyph glyph-name="Aring" unicode="&#xc5;" horiz-adv-x="538" 
d="M178 810h183l156 -810h-152l-30 178h-128l-31 -178h-155zM319 280l-49 326l-48 -326h97zM186.5 877q-32.5 29 -32.5 81t32.5 81t82.5 29t83.5 -29.5t33.5 -80.5q0 -52 -33 -81t-84 -29q-50 0 -82.5 29zM307.5 920q13.5 15 13.5 38q0 24 -13.5 39t-38.5 15
q-24 0 -37.5 -15t-13.5 -39q0 -23 13.5 -38t37.5 -15q25 0 38.5 15z" />
    <glyph glyph-name="AE" unicode="&#xc6;" horiz-adv-x="692" 
d="M329 800h342v-113h-178v-211h127v-115h-127v-248h178v-113h-321v177h-134l-73 -177h-164zM350 282v267l-100 -267h100z" />
    <glyph glyph-name="Ccedilla" unicode="&#xc7;" horiz-adv-x="553" 
d="M103 58.5q-54 69.5 -54 200.5v290q0 134 53.5 202.5t183.5 68.5q124 0 175.5 -60.5t51.5 -173.5v-68h-160v75q0 36 -3.5 58t-18 36.5t-44.5 14.5q-45 0 -58 -29t-13 -85v-368q0 -57 15 -85t56 -28q42 0 54 28.5t12 84.5v79h160v-67q0 -116 -51 -179.5t-176 -63.5
q-129 0 -183 69.5zM221 -257v67q30 -8 56 -8q28 0 45 8.5t17 27.5q0 25 -26 37.5t-65 15.5v109h58v-64q62 0 97 -25.5t35 -74.5q0 -52 -40.5 -78t-102.5 -26q-36 0 -74 11z" />
    <glyph glyph-name="Egrave" unicode="&#xc8;" horiz-adv-x="439" 
d="M61 810h353v-114h-189v-215h146v-115h-146v-254h191v-112h-355v810zM73 1071h155l60 -201h-91z" />
    <glyph glyph-name="Eacute" unicode="&#xc9;" horiz-adv-x="439" 
d="M61 810h353v-114h-189v-215h146v-115h-146v-254h191v-112h-355v810zM253 1071h154l-123 -201h-92z" />
    <glyph glyph-name="Ecircumflex" unicode="&#xca;" horiz-adv-x="439" 
d="M61 810h353v-114h-189v-215h146v-115h-146v-254h191v-112h-355v810zM175 1066h128l95 -188h-111l-48 120l-47 -120h-110z" />
    <glyph glyph-name="Edieresis" unicode="&#xcb;" horiz-adv-x="439" 
d="M61 810h353v-114h-189v-215h146v-115h-146v-254h191v-112h-355v810zM73 1042h125v-140h-125v140zM281 1042h126v-140h-126v140z" />
    <glyph glyph-name="Igrave" unicode="&#xcc;" horiz-adv-x="289" 
d="M63 810h164v-810h-164v810zM-22 1071h155l60 -201h-91z" />
    <glyph glyph-name="Iacute" unicode="&#xcd;" horiz-adv-x="289" 
d="M63 810h164v-810h-164v810zM158 1071h154l-123 -201h-92z" />
    <glyph glyph-name="Icircumflex" unicode="&#xce;" horiz-adv-x="289" 
d="M63 810h164v-810h-164v810zM80 1066h128l95 -188h-111l-48 120l-47 -120h-110z" />
    <glyph glyph-name="Idieresis" unicode="&#xcf;" horiz-adv-x="289" 
d="M63 810h164v-810h-164v810zM-22 1042h125v-140h-125v140zM186 1042h126v-140h-126v140z" />
    <glyph glyph-name="Eth" unicode="&#xd0;" horiz-adv-x="553" 
d="M54 374h-45v84h45v352h199q102 0 159.5 -26.5t81.5 -81.5t24 -146v-295q0 -93 -24 -149.5t-80.5 -84t-156.5 -27.5h-203v374zM255 115q43 0 63.5 13.5t26 39.5t5.5 75v335q0 46 -6.5 69.5t-26.5 35t-63 11.5h-35v-236h45v-84h-45v-259h36z" />
    <glyph glyph-name="Ntilde" unicode="&#xd1;" horiz-adv-x="554" 
d="M61 810h115l180 -421v421h137v-810h-111l-180 448v-448h-141v810zM322.5 913.5q-16.5 6.5 -37.5 19.5q-34 21 -54 21q-36 0 -36 -41h-74q-2 135 87 135q17 0 32.5 -6t34.5 -18q18 -10 31 -15.5t27 -5.5q31 0 31 39h69q0 -60 -15.5 -97.5t-60.5 -37.5q-18 0 -34.5 6.5z
" />
    <glyph glyph-name="Ograve" unicode="&#xd2;" horiz-adv-x="576" 
d="M104 56.5q-55 67.5 -55 198.5v302q0 131 55 197t184 66q128 0 183.5 -66.5t55.5 -196.5v-303q0 -130 -55.5 -197.5t-183.5 -67.5q-129 0 -184 67.5zM344.5 135.5q14.5 28.5 14.5 78.5v383q0 50 -14.5 77.5t-56.5 27.5t-56.5 -27.5t-14.5 -77.5v-383q0 -51 14 -79t57 -28
q42 0 56.5 28.5zM121 1071h155l60 -201h-91z" />
    <glyph glyph-name="Oacute" unicode="&#xd3;" horiz-adv-x="576" 
d="M104 56.5q-55 67.5 -55 198.5v302q0 131 55 197t184 66q128 0 183.5 -66.5t55.5 -196.5v-303q0 -130 -55.5 -197.5t-183.5 -67.5q-129 0 -184 67.5zM344.5 135.5q14.5 28.5 14.5 78.5v383q0 50 -14.5 77.5t-56.5 27.5t-56.5 -27.5t-14.5 -77.5v-383q0 -51 14 -79t57 -28
q42 0 56.5 28.5zM301 1071h154l-123 -201h-92z" />
    <glyph glyph-name="Ocircumflex" unicode="&#xd4;" horiz-adv-x="576" 
d="M104 56.5q-55 67.5 -55 198.5v302q0 131 55 197t184 66q128 0 183.5 -66.5t55.5 -196.5v-303q0 -130 -55.5 -197.5t-183.5 -67.5q-129 0 -184 67.5zM344.5 135.5q14.5 28.5 14.5 78.5v383q0 50 -14.5 77.5t-56.5 27.5t-56.5 -27.5t-14.5 -77.5v-383q0 -51 14 -79t57 -28
q42 0 56.5 28.5zM223 1066h128l95 -188h-111l-48 120l-47 -120h-110z" />
    <glyph glyph-name="Otilde" unicode="&#xd5;" horiz-adv-x="576" 
d="M104 56.5q-55 67.5 -55 198.5v302q0 131 55 197t184 66q128 0 183.5 -66.5t55.5 -196.5v-303q0 -130 -55.5 -197.5t-183.5 -67.5q-129 0 -184 67.5zM344.5 135.5q14.5 28.5 14.5 78.5v383q0 50 -14.5 77.5t-56.5 27.5t-56.5 -27.5t-14.5 -77.5v-383q0 -51 14 -79t57 -28
q42 0 56.5 28.5zM333.5 913.5q-16.5 6.5 -37.5 19.5q-34 21 -54 21q-36 0 -36 -41h-74q-2 135 87 135q17 0 32.5 -6t34.5 -18q18 -10 31 -15.5t27 -5.5q31 0 31 39h69q0 -60 -15.5 -97.5t-60.5 -37.5q-18 0 -34.5 6.5z" />
    <glyph glyph-name="Odieresis" unicode="&#xd6;" horiz-adv-x="576" 
d="M104 56.5q-55 67.5 -55 198.5v302q0 131 55 197t184 66q128 0 183.5 -66.5t55.5 -196.5v-303q0 -130 -55.5 -197.5t-183.5 -67.5q-129 0 -184 67.5zM344.5 135.5q14.5 28.5 14.5 78.5v383q0 50 -14.5 77.5t-56.5 27.5t-56.5 -27.5t-14.5 -77.5v-383q0 -51 14 -79t57 -28
q42 0 56.5 28.5zM121 1042h125v-140h-125v140zM329 1042h126v-140h-126v140z" />
    <glyph glyph-name="multiply" unicode="&#xd7;" horiz-adv-x="464" 
d="M53 302l110 110l-110 109l70 71l109 -110l110 110l69 -69l-109 -111l109 -110l-69 -69l-110 109l-109 -109z" />
    <glyph glyph-name="Oslash" unicode="&#xd8;" horiz-adv-x="565" 
d="M505 697q22 -57 22 -140v-303q0 -130 -55.5 -197.5t-183.5 -67.5q-74 0 -125 23l-35 -99l-39 15l38 107q-41 33 -59.5 87.5t-18.5 132.5v302q0 131 55 197t184 66q63 0 109 -17l28 80l40 -14l-30 -84q48 -31 70 -88zM217 292l132 374q-16 36 -61 36q-42 0 -56.5 -27.5
t-14.5 -77.5v-305zM344.5 135.5q14.5 28.5 14.5 78.5v354l-140 -396q5 -31 20.5 -48t48.5 -17q42 0 56.5 28.5z" />
    <glyph glyph-name="Ugrave" unicode="&#xd9;" horiz-adv-x="578" 
d="M148 19.5q-51 30.5 -72 88.5t-21 148v554h162v-577q0 -58 14 -91t58 -33t58 33t14 91v577h163v-554q0 -90 -21 -148t-72.5 -88.5t-141.5 -30.5t-141 30.5zM123 1071h155l60 -201h-91z" />
    <glyph glyph-name="Uacute" unicode="&#xda;" horiz-adv-x="578" 
d="M148 19.5q-51 30.5 -72 88.5t-21 148v554h162v-577q0 -58 14 -91t58 -33t58 33t14 91v577h163v-554q0 -90 -21 -148t-72.5 -88.5t-141.5 -30.5t-141 30.5zM303 1071h154l-123 -201h-92z" />
    <glyph glyph-name="Ucircumflex" unicode="&#xdb;" horiz-adv-x="578" 
d="M148 19.5q-51 30.5 -72 88.5t-21 148v554h162v-577q0 -58 14 -91t58 -33t58 33t14 91v577h163v-554q0 -90 -21 -148t-72.5 -88.5t-141.5 -30.5t-141 30.5zM225 1066h128l95 -188h-111l-48 120l-47 -120h-110z" />
    <glyph glyph-name="Udieresis" unicode="&#xdc;" horiz-adv-x="578" 
d="M148 19.5q-51 30.5 -72 88.5t-21 148v554h162v-577q0 -58 14 -91t58 -33t58 33t14 91v577h163v-554q0 -90 -21 -148t-72.5 -88.5t-141.5 -30.5t-141 30.5zM123 1042h125v-140h-125v140zM331 1042h126v-140h-126v140z" />
    <glyph glyph-name="Yacute" unicode="&#xdd;" horiz-adv-x="491" 
d="M167 321l-158 489h155l87 -285l80 285h151l-156 -489v-321h-159v321zM259 1071h154l-123 -201h-92z" />
    <glyph glyph-name="Thorn" unicode="&#xde;" horiz-adv-x="549" 
d="M54 810h165v-108h86q117 0 173 -55t56 -172q0 -91 -25.5 -143.5t-78 -75t-136.5 -22.5h-75v-234h-165v810zM279 353q56 0 79.5 26t23.5 89q0 60 -22 86.5t-75 26.5h-66v-228h60z" />
    <glyph glyph-name="germandbls" unicode="&#xdf;" horiz-adv-x="536" 
d="M247 103q58 0 83 29.5t25 98.5q0 59 -25 92.5t-74 33.5v117q38 0 57.5 34t19.5 95q0 54 -16 82.5t-52 28.5q-37 0 -51 -28.5t-14 -84.5v-601h-151v601q0 96 50 158t154 62q107 0 159 -55.5t52 -159.5q0 -128 -114 -176q155 -42 155 -215q0 -118 -65 -173.5t-193 -55.5
v117z" />
    <glyph glyph-name="agrave" unicode="&#xe0;" horiz-adv-x="466" 
d="M98 10q-30 20 -45.5 52.5t-15.5 67.5q0 67 33 110t79.5 67t123.5 52v54q0 31 -8.5 47t-30.5 16t-31 -14t-11 -40l-3 -40l-142 6q4 103 53 151.5t147 48.5q85 0 128 -47t43 -129v-269q0 -68 10 -143h-135q-4 29 -13 83q-12 -40 -40.5 -66.5t-71.5 -26.5q-40 0 -70 20z
M250.5 107q13.5 10 22.5 23v159q-47 -27 -72 -56t-25 -71q0 -31 12 -48t34 -17q15 0 28.5 10zM79 839h155l60 -201h-91z" />
    <glyph glyph-name="aacute" unicode="&#xe1;" horiz-adv-x="466" 
d="M98 10q-30 20 -45.5 52.5t-15.5 67.5q0 67 33 110t79.5 67t123.5 52v54q0 31 -8.5 47t-30.5 16t-31 -14t-11 -40l-3 -40l-142 6q4 103 53 151.5t147 48.5q85 0 128 -47t43 -129v-269q0 -68 10 -143h-135q-4 29 -13 83q-12 -40 -40.5 -66.5t-71.5 -26.5q-40 0 -70 20z
M250.5 107q13.5 10 22.5 23v159q-47 -27 -72 -56t-25 -71q0 -31 12 -48t34 -17q15 0 28.5 10zM259 839h154l-123 -201h-92z" />
    <glyph glyph-name="acircumflex" unicode="&#xe2;" horiz-adv-x="466" 
d="M98 10q-30 20 -45.5 52.5t-15.5 67.5q0 67 33 110t79.5 67t123.5 52v54q0 31 -8.5 47t-30.5 16t-31 -14t-11 -40l-3 -40l-142 6q4 103 53 151.5t147 48.5q85 0 128 -47t43 -129v-269q0 -68 10 -143h-135q-4 29 -13 83q-12 -40 -40.5 -66.5t-71.5 -26.5q-40 0 -70 20z
M250.5 107q13.5 10 22.5 23v159q-47 -27 -72 -56t-25 -71q0 -31 12 -48t34 -17q15 0 28.5 10zM181 834h128l95 -188h-111l-48 120l-47 -120h-110z" />
    <glyph glyph-name="atilde" unicode="&#xe3;" horiz-adv-x="466" 
d="M98 10q-30 20 -45.5 52.5t-15.5 67.5q0 67 33 110t79.5 67t123.5 52v54q0 31 -8.5 47t-30.5 16t-31 -14t-11 -40l-3 -40l-142 6q4 103 53 151.5t147 48.5q85 0 128 -47t43 -129v-269q0 -68 10 -143h-135q-4 29 -13 83q-12 -40 -40.5 -66.5t-71.5 -26.5q-40 0 -70 20z
M250.5 107q13.5 10 22.5 23v159q-47 -27 -72 -56t-25 -71q0 -31 12 -48t34 -17q15 0 28.5 10zM291.5 681.5q-16.5 6.5 -37.5 19.5q-34 21 -54 21q-36 0 -36 -41h-74q-2 135 87 135q17 0 32.5 -6t34.5 -18q18 -10 31 -15.5t27 -5.5q31 0 31 39h69q0 -60 -15.5 -97.5
t-60.5 -37.5q-18 0 -34.5 6.5z" />
    <glyph glyph-name="adieresis" unicode="&#xe4;" horiz-adv-x="466" 
d="M98 10q-30 20 -45.5 52.5t-15.5 67.5q0 67 33 110t79.5 67t123.5 52v54q0 31 -8.5 47t-30.5 16t-31 -14t-11 -40l-3 -40l-142 6q4 103 53 151.5t147 48.5q85 0 128 -47t43 -129v-269q0 -68 10 -143h-135q-4 29 -13 83q-12 -40 -40.5 -66.5t-71.5 -26.5q-40 0 -70 20z
M250.5 107q13.5 10 22.5 23v159q-47 -27 -72 -56t-25 -71q0 -31 12 -48t34 -17q15 0 28.5 10zM79 810h125v-140h-125v140zM287 810h126v-140h-126v140z" />
    <glyph glyph-name="aring" unicode="&#xe5;" horiz-adv-x="466" 
d="M98 10q-30 20 -45.5 52.5t-15.5 67.5q0 67 33 110t79.5 67t123.5 52v54q0 31 -8.5 47t-30.5 16t-31 -14t-11 -40l-3 -40l-142 6q4 103 53 151.5t147 48.5q85 0 128 -47t43 -129v-269q0 -68 10 -143h-135q-4 29 -13 83q-12 -40 -40.5 -66.5t-71.5 -26.5q-40 0 -70 20z
M250.5 107q13.5 10 22.5 23v159q-47 -27 -72 -56t-25 -71q0 -31 12 -48t34 -17q15 0 28.5 10zM162.5 645q-32.5 29 -32.5 81t32.5 81t82.5 29t83.5 -29.5t33.5 -80.5q0 -52 -33 -81t-84 -29q-50 0 -82.5 29zM283.5 688q13.5 15 13.5 38q0 24 -13.5 39t-38.5 15
q-24 0 -37.5 -15t-13.5 -39q0 -23 13.5 -38t37.5 -15q25 0 38.5 15z" />
    <glyph glyph-name="ae" unicode="&#xe6;" horiz-adv-x="673" 
d="M488 202h141v-42q0 -82 -41.5 -126.5t-120.5 -44.5q-51 0 -89.5 26.5t-47.5 73.5q-15 -47 -54 -73.5t-89 -26.5q-69 0 -109.5 38.5t-40.5 103.5q0 78 45.5 120.5t123.5 61.5l64 15v80q0 35 -9.5 51t-30.5 16q-23 0 -33.5 -20t-10.5 -67l-147 4q1 95 45.5 145.5
t133.5 50.5q46 0 77.5 -17.5t44.5 -45.5q16 28 53.5 45.5t84.5 17.5q76 0 115 -37.5t39 -100.5q0 -69 -39 -103t-111 -50l-67 -15v-117q0 -34 7.5 -50.5t29.5 -16.5t29 17t7 51v36zM414 352l24 6q35 7 51 22.5t16 45.5q0 22 -11 36t-32 14q-26 0 -37 -16.5t-11 -49.5v-58z
M270 259l-34 -14q-33 -13 -48 -35t-15 -54q0 -28 12 -45.5t36 -17.5q49 0 49 69v97z" />
    <glyph glyph-name="ccedilla" unicode="&#xe7;" horiz-adv-x="456" 
d="M89 43q-49 53 -49 149v195q0 97 49 149t144 52q93 0 140.5 -44t47.5 -132v-55h-145v59q0 38 -10 52.5t-32 14.5q-24 0 -33.5 -18t-9.5 -63v-228q0 -45 10.5 -62t32.5 -17q23 0 32.5 16t9.5 51v70h145v-64q0 -87 -48 -132.5t-140 -45.5q-95 0 -144 53zM173 -257v67
q30 -8 56 -8q28 0 45 8.5t17 27.5q0 25 -26 37.5t-65 15.5v109h58v-64q62 0 97 -25.5t35 -74.5q0 -52 -40.5 -78t-102.5 -26q-36 0 -74 11z" />
    <glyph glyph-name="egrave" unicode="&#xe8;" horiz-adv-x="459" 
d="M89.5 42q-49.5 52 -49.5 150v194q0 98 50 150t144 52q97 0 142 -52t45 -154v-101h-231v-112q0 -37 11.5 -54t33.5 -17q45 0 45 65v56h140v-50q0 -87 -48 -133t-138 -46q-95 0 -144.5 52zM280 353v56q0 38 -11 54.5t-35 16.5q-23 0 -33.5 -18t-10.5 -64v-45h90zM65 839
h155l60 -201h-91z" />
    <glyph glyph-name="eacute" unicode="&#xe9;" horiz-adv-x="459" 
d="M89.5 42q-49.5 52 -49.5 150v194q0 98 50 150t144 52q97 0 142 -52t45 -154v-101h-231v-112q0 -37 11.5 -54t33.5 -17q45 0 45 65v56h140v-50q0 -87 -48 -133t-138 -46q-95 0 -144.5 52zM280 353v56q0 38 -11 54.5t-35 16.5q-23 0 -33.5 -18t-10.5 -64v-45h90zM245 839
h154l-123 -201h-92z" />
    <glyph glyph-name="ecircumflex" unicode="&#xea;" horiz-adv-x="459" 
d="M89.5 42q-49.5 52 -49.5 150v194q0 98 50 150t144 52q97 0 142 -52t45 -154v-101h-231v-112q0 -37 11.5 -54t33.5 -17q45 0 45 65v56h140v-50q0 -87 -48 -133t-138 -46q-95 0 -144.5 52zM280 353v56q0 38 -11 54.5t-35 16.5q-23 0 -33.5 -18t-10.5 -64v-45h90zM167 834
h128l95 -188h-111l-48 120l-47 -120h-110z" />
    <glyph glyph-name="edieresis" unicode="&#xeb;" horiz-adv-x="459" 
d="M89.5 42q-49.5 52 -49.5 150v194q0 98 50 150t144 52q97 0 142 -52t45 -154v-101h-231v-112q0 -37 11.5 -54t33.5 -17q45 0 45 65v56h140v-50q0 -87 -48 -133t-138 -46q-95 0 -144.5 52zM280 353v56q0 38 -11 54.5t-35 16.5q-23 0 -33.5 -18t-10.5 -64v-45h90zM65 810
h125v-140h-125v140zM273 810h126v-140h-126v140z" />
    <glyph glyph-name="igrave" unicode="&#xec;" horiz-adv-x="268" 
d="M60 578h151v-578h-151v578zM-31 839h155l60 -201h-91z" />
    <glyph glyph-name="iacute" unicode="&#xed;" horiz-adv-x="268" 
d="M60 578h151v-578h-151v578zM149 839h154l-123 -201h-92z" />
    <glyph glyph-name="icircumflex" unicode="&#xee;" horiz-adv-x="268" 
d="M60 578h151v-578h-151v578zM71 834h128l95 -188h-111l-48 120l-47 -120h-110z" />
    <glyph glyph-name="idieresis" unicode="&#xef;" horiz-adv-x="268" 
d="M60 578h151v-578h-151v578zM-31 810h125v-140h-125v140zM177 810h126v-140h-126v140z" />
    <glyph glyph-name="eth" unicode="&#xf0;" horiz-adv-x="509" 
d="M109 44q-56 57 -56 170v148q0 63 21.5 112t60.5 76t90 27q43 0 81 -22q-1 38 -8.5 68.5t-17.5 45.5l-94 -44l-14 44l81 39q-28 35 -130 36l7 95q170 -1 233 -74l92 45l14 -45l-78 -37q30 -56 48.5 -125t18.5 -174v-209q0 -233 -201 -233q-92 0 -148 57zM296.5 113.5
q10.5 23.5 10.5 69.5v276q-26 16 -45 16q-25 0 -37.5 -17.5t-17.5 -56.5t-5 -113q0 -81 3.5 -120.5t15.5 -58.5t39 -19q26 0 36.5 23.5z" />
    <glyph glyph-name="ntilde" unicode="&#xf1;" horiz-adv-x="493" 
d="M52 578h150v-58q70 68 140 68q50 0 76.5 -37t26.5 -95v-456h-151v432q0 24 -8 35.5t-27 11.5q-23 0 -57 -24v-455h-150v578zM292.5 681.5q-16.5 6.5 -37.5 19.5q-34 21 -54 21q-36 0 -36 -41h-74q-2 135 87 135q17 0 32.5 -6t34.5 -18q18 -10 31 -15.5t27 -5.5
q31 0 31 39h69q0 -60 -15.5 -97.5t-60.5 -37.5q-18 0 -34.5 6.5z" />
    <glyph glyph-name="ograve" unicode="&#xf2;" 
d="M90.5 40q-50.5 50 -50.5 145v208q0 95 50.5 145t144.5 50t144.5 -50t50.5 -145v-208q0 -95 -50.5 -145t-144.5 -50t-144.5 50zM271.5 112.5q9.5 20.5 9.5 61.5v229q0 41 -9.5 62t-35.5 21q-27 0 -37 -21.5t-10 -61.5v-229q0 -40 10 -61t37 -21q26 0 35.5 20.5zM68 839
h155l60 -201h-91z" />
    <glyph glyph-name="oacute" unicode="&#xf3;" 
d="M90.5 40q-50.5 50 -50.5 145v208q0 95 50.5 145t144.5 50t144.5 -50t50.5 -145v-208q0 -95 -50.5 -145t-144.5 -50t-144.5 50zM271.5 112.5q9.5 20.5 9.5 61.5v229q0 41 -9.5 62t-35.5 21q-27 0 -37 -21.5t-10 -61.5v-229q0 -40 10 -61t37 -21q26 0 35.5 20.5zM248 839
h154l-123 -201h-92z" />
    <glyph glyph-name="ocircumflex" unicode="&#xf4;" 
d="M90.5 40q-50.5 50 -50.5 145v208q0 95 50.5 145t144.5 50t144.5 -50t50.5 -145v-208q0 -95 -50.5 -145t-144.5 -50t-144.5 50zM271.5 112.5q9.5 20.5 9.5 61.5v229q0 41 -9.5 62t-35.5 21q-27 0 -37 -21.5t-10 -61.5v-229q0 -40 10 -61t37 -21q26 0 35.5 20.5zM170 834
h128l95 -188h-111l-48 120l-47 -120h-110z" />
    <glyph glyph-name="otilde" unicode="&#xf5;" 
d="M90.5 40q-50.5 50 -50.5 145v208q0 95 50.5 145t144.5 50t144.5 -50t50.5 -145v-208q0 -95 -50.5 -145t-144.5 -50t-144.5 50zM271.5 112.5q9.5 20.5 9.5 61.5v229q0 41 -9.5 62t-35.5 21q-27 0 -37 -21.5t-10 -61.5v-229q0 -40 10 -61t37 -21q26 0 35.5 20.5z
M280.5 681.5q-16.5 6.5 -37.5 19.5q-34 21 -54 21q-36 0 -36 -41h-74q-2 135 87 135q17 0 32.5 -6t34.5 -18q18 -10 31 -15.5t27 -5.5q31 0 31 39h69q0 -60 -15.5 -97.5t-60.5 -37.5q-18 0 -34.5 6.5z" />
    <glyph glyph-name="odieresis" unicode="&#xf6;" 
d="M90.5 40q-50.5 50 -50.5 145v208q0 95 50.5 145t144.5 50t144.5 -50t50.5 -145v-208q0 -95 -50.5 -145t-144.5 -50t-144.5 50zM271.5 112.5q9.5 20.5 9.5 61.5v229q0 41 -9.5 62t-35.5 21q-27 0 -37 -21.5t-10 -61.5v-229q0 -40 10 -61t37 -21q26 0 35.5 20.5zM68 810
h125v-140h-125v140zM276 810h126v-140h-126v140z" />
    <glyph glyph-name="divide" unicode="&#xf7;" horiz-adv-x="433" 
d="M172 651h97v-121h-97v121zM32 460h369v-86h-369v86zM172 296h97v-120h-97v120z" />
    <glyph glyph-name="oslash" unicode="&#xf8;" horiz-adv-x="466" 
d="M430 393v-208q0 -95 -50.5 -145t-144.5 -50q-53 0 -95 17l-38 -97l-36 15l40 102q-66 49 -66 158v208q0 95 50.5 145t144.5 50q47 0 86 -14l38 98l39 -15l-40 -101q72 -49 72 -163zM189 239l86 218q-10 29 -39 29q-27 0 -37 -21.5t-10 -61.5v-164zM271.5 112.5
q9.5 20.5 9.5 61.5v188l-89 -226q7 -44 44 -44q26 0 35.5 20.5z" />
    <glyph glyph-name="ugrave" unicode="&#xf9;" horiz-adv-x="490" 
d="M72.5 27q-26.5 37 -26.5 95v456h151v-435q0 -24 8.5 -36t28.5 -12q21 0 53 22v461h151v-578h-151v54q-69 -64 -138 -64q-50 0 -76.5 37zM78 839h155l60 -201h-91z" />
    <glyph glyph-name="uacute" unicode="&#xfa;" horiz-adv-x="490" 
d="M72.5 27q-26.5 37 -26.5 95v456h151v-435q0 -24 8.5 -36t28.5 -12q21 0 53 22v461h151v-578h-151v54q-69 -64 -138 -64q-50 0 -76.5 37zM258 839h154l-123 -201h-92z" />
    <glyph glyph-name="ucircumflex" unicode="&#xfb;" horiz-adv-x="490" 
d="M72.5 27q-26.5 37 -26.5 95v456h151v-435q0 -24 8.5 -36t28.5 -12q21 0 53 22v461h151v-578h-151v54q-69 -64 -138 -64q-50 0 -76.5 37zM180 834h128l95 -188h-111l-48 120l-47 -120h-110z" />
    <glyph glyph-name="udieresis" unicode="&#xfc;" horiz-adv-x="490" 
d="M72.5 27q-26.5 37 -26.5 95v456h151v-435q0 -24 8.5 -36t28.5 -12q21 0 53 22v461h151v-578h-151v54q-69 -64 -138 -64q-50 0 -76.5 37zM78 810h125v-140h-125v140zM286 810h126v-140h-126v140z" />
    <glyph glyph-name="yacute" unicode="&#xfd;" horiz-adv-x="436" 
d="M62 -57q51 0 73.5 10.5t22.5 37.5q0 13 -6.5 41t-14.5 58l-132 488h144l73 -355l60 355h144l-134 -596q-18 -80 -67 -112.5t-131 -32.5h-32v106zM231 839h154l-123 -201h-92z" />
    <glyph glyph-name="thorn" unicode="&#xfe;" horiz-adv-x="484" 
d="M48 810h151v-275q58 53 122 53q65 0 94.5 -52.5t29.5 -128.5v-226q0 -86 -32.5 -138.5t-96.5 -52.5q-57 0 -117 53v-233h-151v1000zM294 175v242q0 76 -45 76q-25 0 -50 -22v-363q26 -17 50 -17q45 0 45 84z" />
    <glyph glyph-name="ydieresis" unicode="&#xff;" horiz-adv-x="436" 
d="M62 -57q51 0 73.5 10.5t22.5 37.5q0 13 -6.5 41t-14.5 58l-132 488h144l73 -355l60 355h144l-134 -596q-18 -80 -67 -112.5t-131 -32.5h-32v106zM51 810h125v-140h-125v140zM259 810h126v-140h-126v140z" />
    <glyph glyph-name="Amacron" unicode="&#x100;" horiz-adv-x="538" 
d="M178 810h183l156 -810h-152l-30 178h-128l-31 -178h-155zM319 280l-49 326l-48 -326h97zM141 977h258v-75h-258v75z" />
    <glyph glyph-name="amacron" unicode="&#x101;" horiz-adv-x="466" 
d="M98 10q-30 20 -45.5 52.5t-15.5 67.5q0 67 33 110t79.5 67t123.5 52v54q0 31 -8.5 47t-30.5 16t-31 -14t-11 -40l-3 -40l-142 6q4 103 53 151.5t147 48.5q85 0 128 -47t43 -129v-269q0 -68 10 -143h-135q-4 29 -13 83q-12 -40 -40.5 -66.5t-71.5 -26.5q-40 0 -70 20z
M250.5 107q13.5 10 22.5 23v159q-47 -27 -72 -56t-25 -71q0 -31 12 -48t34 -17q15 0 28.5 10zM117 745h258v-75h-258v75z" />
    <glyph glyph-name="Abreve" unicode="&#x102;" horiz-adv-x="538" 
d="M178 810h183l156 -810h-152l-30 178h-128l-31 -178h-155zM319 280l-49 326l-48 -326h97zM158.5 914q-40.5 40 -40.5 112h86q0 -38 15 -55.5t51 -17.5q35 0 50.5 18t15.5 55h85q0 -72 -40 -112t-111 -40t-111.5 40z" />
    <glyph glyph-name="abreve" unicode="&#x103;" horiz-adv-x="466" 
d="M98 10q-30 20 -45.5 52.5t-15.5 67.5q0 67 33 110t79.5 67t123.5 52v54q0 31 -8.5 47t-30.5 16t-31 -14t-11 -40l-3 -40l-142 6q4 103 53 151.5t147 48.5q85 0 128 -47t43 -129v-269q0 -68 10 -143h-135q-4 29 -13 83q-12 -40 -40.5 -66.5t-71.5 -26.5q-40 0 -70 20z
M250.5 107q13.5 10 22.5 23v159q-47 -27 -72 -56t-25 -71q0 -31 12 -48t34 -17q15 0 28.5 10zM134.5 682q-40.5 40 -40.5 112h86q0 -38 15 -55.5t51 -17.5q35 0 50.5 18t15.5 55h85q0 -72 -40 -112t-111 -40t-111.5 40z" />
    <glyph glyph-name="Aogonek" unicode="&#x104;" horiz-adv-x="538" 
d="M178 810h183l156 -810h-152l-30 178h-128l-31 -178h-155zM319 280l-49 326l-48 -326h97zM374 -232.5q-44 21.5 -44 82.5q0 39 25.5 82t59.5 68h69q-46 -68 -46 -123q0 -56 67 -56q14 0 30 2l-16 -74q-14 -3 -34 -3q-67 0 -111 21.5z" />
    <glyph glyph-name="aogonek" unicode="&#x105;" horiz-adv-x="466" 
d="M98 10q-30 20 -45.5 52.5t-15.5 67.5q0 67 33 110t79.5 67t123.5 52v54q0 31 -8.5 47t-30.5 16t-31 -14t-11 -40l-3 -40l-142 6q4 103 53 151.5t147 48.5q85 0 128 -47t43 -129v-269q0 -68 10 -143h-135q-4 29 -13 83q-12 -40 -40.5 -66.5t-71.5 -26.5q-40 0 -70 20z
M250.5 107q13.5 10 22.5 23v159q-47 -27 -72 -56t-25 -71q0 -31 12 -48t34 -17q15 0 28.5 10zM292 -232.5q-44 21.5 -44 82.5q0 39 25.5 82t59.5 68h69q-46 -68 -46 -123q0 -56 67 -56q14 0 30 2l-16 -74q-14 -3 -34 -3q-67 0 -111 21.5z" />
    <glyph glyph-name="Cacute" unicode="&#x106;" horiz-adv-x="553" 
d="M103 58.5q-54 69.5 -54 200.5v290q0 134 53.5 202.5t183.5 68.5q124 0 175.5 -60.5t51.5 -173.5v-68h-160v75q0 36 -3.5 58t-18 36.5t-44.5 14.5q-45 0 -58 -29t-13 -85v-368q0 -57 15 -85t56 -28q42 0 54 28.5t12 84.5v79h160v-67q0 -116 -51 -179.5t-176 -63.5
q-129 0 -183 69.5zM296 1071h154l-123 -201h-92z" />
    <glyph glyph-name="cacute" unicode="&#x107;" horiz-adv-x="456" 
d="M89 43q-49 53 -49 149v195q0 97 49 149t144 52q93 0 140.5 -44t47.5 -132v-55h-145v59q0 38 -10 52.5t-32 14.5q-24 0 -33.5 -18t-9.5 -63v-228q0 -45 10.5 -62t32.5 -17q23 0 32.5 16t9.5 51v70h145v-64q0 -87 -48 -132.5t-140 -45.5q-95 0 -144 53zM242 839h154
l-123 -201h-92z" />
    <glyph glyph-name="Ccircumflex" unicode="&#x108;" horiz-adv-x="553" 
d="M103 58.5q-54 69.5 -54 200.5v290q0 134 53.5 202.5t183.5 68.5q124 0 175.5 -60.5t51.5 -173.5v-68h-160v75q0 36 -3.5 58t-18 36.5t-44.5 14.5q-45 0 -58 -29t-13 -85v-368q0 -57 15 -85t56 -28q42 0 54 28.5t12 84.5v79h160v-67q0 -116 -51 -179.5t-176 -63.5
q-129 0 -183 69.5zM218 1066h128l95 -188h-111l-48 120l-47 -120h-110z" />
    <glyph glyph-name="ccircumflex" unicode="&#x109;" horiz-adv-x="456" 
d="M89 43q-49 53 -49 149v195q0 97 49 149t144 52q93 0 140.5 -44t47.5 -132v-55h-145v59q0 38 -10 52.5t-32 14.5q-24 0 -33.5 -18t-9.5 -63v-228q0 -45 10.5 -62t32.5 -17q23 0 32.5 16t9.5 51v70h145v-64q0 -87 -48 -132.5t-140 -45.5q-95 0 -144 53zM164 834h128
l95 -188h-111l-48 120l-47 -120h-110z" />
    <glyph glyph-name="Cdotaccent" unicode="&#x10a;" horiz-adv-x="553" 
d="M103 58.5q-54 69.5 -54 200.5v290q0 134 53.5 202.5t183.5 68.5q124 0 175.5 -60.5t51.5 -173.5v-68h-160v75q0 36 -3.5 58t-18 36.5t-44.5 14.5q-45 0 -58 -29t-13 -85v-368q0 -57 15 -85t56 -28q42 0 54 28.5t12 84.5v79h160v-67q0 -116 -51 -179.5t-176 -63.5
q-129 0 -183 69.5zM211 1034h144v-146h-144v146z" />
    <glyph glyph-name="cdotaccent" unicode="&#x10b;" horiz-adv-x="456" 
d="M89 43q-49 53 -49 149v195q0 97 49 149t144 52q93 0 140.5 -44t47.5 -132v-55h-145v59q0 38 -10 52.5t-32 14.5q-24 0 -33.5 -18t-9.5 -63v-228q0 -45 10.5 -62t32.5 -17q23 0 32.5 16t9.5 51v70h145v-64q0 -87 -48 -132.5t-140 -45.5q-95 0 -144 53zM157 802h144v-146
h-144v146z" />
    <glyph glyph-name="Ccaron" unicode="&#x10c;" horiz-adv-x="553" 
d="M103 58.5q-54 69.5 -54 200.5v290q0 134 53.5 202.5t183.5 68.5q124 0 175.5 -60.5t51.5 -173.5v-68h-160v75q0 36 -3.5 58t-18 36.5t-44.5 14.5q-45 0 -58 -29t-13 -85v-368q0 -57 15 -85t56 -28q42 0 54 28.5t12 84.5v79h160v-67q0 -116 -51 -179.5t-176 -63.5
q-129 0 -183 69.5zM122 1054h108l53 -111l53 111h108l-88 -183h-147z" />
    <glyph glyph-name="ccaron" unicode="&#x10d;" horiz-adv-x="456" 
d="M89 43q-49 53 -49 149v195q0 97 49 149t144 52q93 0 140.5 -44t47.5 -132v-55h-145v59q0 38 -10 52.5t-32 14.5q-24 0 -33.5 -18t-9.5 -63v-228q0 -45 10.5 -62t32.5 -17q23 0 32.5 16t9.5 51v70h145v-64q0 -87 -48 -132.5t-140 -45.5q-95 0 -144 53zM68 822h108l53 -111
l53 111h108l-88 -183h-147z" />
    <glyph glyph-name="Dcaron" unicode="&#x10e;" horiz-adv-x="573" 
d="M61 810h198q102 0 159.5 -26.5t82 -81.5t24.5 -146v-295q0 -93 -24 -149.5t-81 -84t-157 -27.5h-202v810zM261 115q43 0 63.5 13.5t26 39.5t5.5 75v335q0 46 -6.5 69.5t-26.5 35t-63 11.5h-35v-579h36zM126 1054h108l53 -111l53 111h108l-88 -183h-147z" />
    <glyph glyph-name="dcaron" unicode="&#x10f;" horiz-adv-x="616" 
d="M42 181v212q0 89 34 142t102 53q57 0 110 -46v268h151v-810h-151v43q-53 -53 -110 -53q-136 0 -136 191zM288 107v368q-26 15 -48 15q-24 0 -35 -20.5t-11 -54.5v-245q0 -80 46 -80q22 0 48 17zM499 577q69 19 69 87h-80v146h145v-129q0 -140 -122 -154z" />
    <glyph glyph-name="Dcroat" unicode="&#x110;" horiz-adv-x="577" 
d="M64 377h-50v78h50v355h199q102 0 159.5 -26.5t81.5 -81.5t24 -146v-295q0 -93 -24 -149.5t-80.5 -84t-156.5 -27.5h-203v377zM268 115q43 0 63.5 13.5t26 39.5t5.5 75v335q0 46 -6.5 69.5t-26.5 35t-63 11.5h-41v-239h51v-78h-51v-262h42z" />
    <glyph glyph-name="dcroat" unicode="&#x111;" horiz-adv-x="490" 
d="M40 181v212q0 89 33.5 142t102.5 53q57 0 108 -46v138h-129v65h129v65h151v-65h51v-65h-51v-680h-151v43q-51 -53 -108 -53q-136 0 -136 191zM284 107v368q-26 15 -46 15q-24 0 -35.5 -20.5t-11.5 -54.5v-245q0 -80 47 -80q20 0 46 17z" />
    <glyph glyph-name="Emacron" unicode="&#x112;" horiz-adv-x="439" 
d="M61 810h353v-114h-189v-215h146v-115h-146v-254h191v-112h-355v810zM111 977h258v-75h-258v75z" />
    <glyph glyph-name="emacron" unicode="&#x113;" horiz-adv-x="459" 
d="M89.5 42q-49.5 52 -49.5 150v194q0 98 50 150t144 52q97 0 142 -52t45 -154v-101h-231v-112q0 -37 11.5 -54t33.5 -17q45 0 45 65v56h140v-50q0 -87 -48 -133t-138 -46q-95 0 -144.5 52zM280 353v56q0 38 -11 54.5t-35 16.5q-23 0 -33.5 -18t-10.5 -64v-45h90zM103 745
h258v-75h-258v75z" />
    <glyph glyph-name="Ebreve" unicode="&#x114;" horiz-adv-x="439" 
d="M61 810h353v-114h-189v-215h146v-115h-146v-254h191v-112h-355v810zM128.5 914q-40.5 40 -40.5 112h86q0 -38 15 -55.5t51 -17.5q35 0 50.5 18t15.5 55h85q0 -72 -40 -112t-111 -40t-111.5 40z" />
    <glyph glyph-name="ebreve" unicode="&#x115;" horiz-adv-x="459" 
d="M89.5 42q-49.5 52 -49.5 150v194q0 98 50 150t144 52q97 0 142 -52t45 -154v-101h-231v-112q0 -37 11.5 -54t33.5 -17q45 0 45 65v56h140v-50q0 -87 -48 -133t-138 -46q-95 0 -144.5 52zM280 353v56q0 38 -11 54.5t-35 16.5q-23 0 -33.5 -18t-10.5 -64v-45h90zM120.5 682
q-40.5 40 -40.5 112h86q0 -38 15 -55.5t51 -17.5q35 0 50.5 18t15.5 55h85q0 -72 -40 -112t-111 -40t-111.5 40z" />
    <glyph glyph-name="Edotaccent" unicode="&#x116;" horiz-adv-x="439" 
d="M61 810h353v-114h-189v-215h146v-115h-146v-254h191v-112h-355v810zM168 1034h144v-146h-144v146z" />
    <glyph glyph-name="edotaccent" unicode="&#x117;" horiz-adv-x="459" 
d="M89.5 42q-49.5 52 -49.5 150v194q0 98 50 150t144 52q97 0 142 -52t45 -154v-101h-231v-112q0 -37 11.5 -54t33.5 -17q45 0 45 65v56h140v-50q0 -87 -48 -133t-138 -46q-95 0 -144.5 52zM280 353v56q0 38 -11 54.5t-35 16.5q-23 0 -33.5 -18t-10.5 -64v-45h90zM160 802
h144v-146h-144v146z" />
    <glyph glyph-name="Eogonek" unicode="&#x118;" horiz-adv-x="439" 
d="M61 810h353v-114h-189v-215h146v-115h-146v-254h191v-112h-355v810zM239 -232.5q-44 21.5 -44 82.5q0 39 25.5 82t59.5 68h69q-46 -68 -46 -123q0 -56 67 -56q14 0 30 2l-16 -74q-14 -3 -34 -3q-67 0 -111 21.5z" />
    <glyph glyph-name="eogonek" unicode="&#x119;" horiz-adv-x="459" 
d="M89.5 42q-49.5 52 -49.5 150v194q0 98 50 150t144 52q97 0 142 -52t45 -154v-101h-231v-112q0 -37 11.5 -54t33.5 -17q45 0 45 65v56h140v-50q0 -87 -48 -133t-138 -46q-95 0 -144.5 52zM280 353v56q0 38 -11 54.5t-35 16.5q-23 0 -33.5 -18t-10.5 -64v-45h90z
M190 -222.5q-44 21.5 -44 82.5q0 39 25.5 82t59.5 68h69q-46 -68 -46 -123q0 -56 67 -56q14 0 30 2l-16 -74q-14 -3 -34 -3q-67 0 -111 21.5z" />
    <glyph glyph-name="Ecaron" unicode="&#x11a;" horiz-adv-x="439" 
d="M61 810h353v-114h-189v-215h146v-115h-146v-254h191v-112h-355v810zM79 1054h108l53 -111l53 111h108l-88 -183h-147z" />
    <glyph glyph-name="ecaron" unicode="&#x11b;" horiz-adv-x="459" 
d="M89.5 42q-49.5 52 -49.5 150v194q0 98 50 150t144 52q97 0 142 -52t45 -154v-101h-231v-112q0 -37 11.5 -54t33.5 -17q45 0 45 65v56h140v-50q0 -87 -48 -133t-138 -46q-95 0 -144.5 52zM280 353v56q0 38 -11 54.5t-35 16.5q-23 0 -33.5 -18t-10.5 -64v-45h90zM71 822
h108l53 -111l53 111h108l-88 -183h-147z" />
    <glyph glyph-name="Gcircumflex" unicode="&#x11c;" horiz-adv-x="572" 
d="M99.5 60.5q-50.5 72.5 -50.5 207.5v271q0 138 53.5 209.5t183.5 71.5q125 0 178 -61t53 -176v-47h-160v57q0 56 -12.5 82.5t-56.5 26.5q-45 0 -58 -30t-13 -87v-360q0 -57 16 -87.5t60 -30.5q43 0 60.5 32.5t17.5 90.5v86h-79v100h228v-416h-108l-11 72q-37 -84 -133 -84
q-118 0 -168.5 72.5zM221 1066h128l95 -188h-111l-48 120l-47 -120h-110z" />
    <glyph glyph-name="gcircumflex" unicode="&#x11d;" horiz-adv-x="487" 
d="M79.5 -166q-55.5 29 -55.5 86q0 76 89 115q-76 20 -76 85q0 32 15.5 57t48.5 54q-29 25 -43.5 62.5t-14.5 91.5q0 99 50.5 151t146.5 52q89 0 133 -50q10 17 29 33t43 27l20 10l36 -76q-15 -5 -45 -17.5t-47 -22.5q10 -21 15.5 -50t5.5 -58q0 -95 -47.5 -147t-142.5 -52
q-50 0 -89 14q-16 -20 -16 -37q0 -12 12 -19t41 -10l139 -15q142 -16 142 -149q0 -83 -56.5 -123.5t-181.5 -40.5q-96 0 -151.5 29zM280 300.5q10 23.5 10 84.5q0 62 -10 86.5t-40 24.5t-40.5 -25t-10.5 -86q0 -58 10.5 -83t40.5 -25t40 23.5zM335.5 -74.5
q27.5 10.5 27.5 37.5q0 23 -18 33.5t-67 14.5l-104 11q-17 -15 -26.5 -28.5t-9.5 -29.5q0 -25 26 -37t86 -12q58 0 85.5 10.5zM179 834h128l95 -188h-111l-48 120l-47 -120h-110z" />
    <glyph glyph-name="Gbreve" unicode="&#x11e;" horiz-adv-x="572" 
d="M99.5 60.5q-50.5 72.5 -50.5 207.5v271q0 138 53.5 209.5t183.5 71.5q125 0 178 -61t53 -176v-47h-160v57q0 56 -12.5 82.5t-56.5 26.5q-45 0 -58 -30t-13 -87v-360q0 -57 16 -87.5t60 -30.5q43 0 60.5 32.5t17.5 90.5v86h-79v100h228v-416h-108l-11 72q-37 -84 -133 -84
q-118 0 -168.5 72.5zM174.5 914q-40.5 40 -40.5 112h86q0 -38 15 -55.5t51 -17.5q35 0 50.5 18t15.5 55h85q0 -72 -40 -112t-111 -40t-111.5 40z" />
    <glyph glyph-name="gbreve" unicode="&#x11f;" horiz-adv-x="487" 
d="M79.5 -166q-55.5 29 -55.5 86q0 76 89 115q-76 20 -76 85q0 32 15.5 57t48.5 54q-29 25 -43.5 62.5t-14.5 91.5q0 99 50.5 151t146.5 52q89 0 133 -50q10 17 29 33t43 27l20 10l36 -76q-15 -5 -45 -17.5t-47 -22.5q10 -21 15.5 -50t5.5 -58q0 -95 -47.5 -147t-142.5 -52
q-50 0 -89 14q-16 -20 -16 -37q0 -12 12 -19t41 -10l139 -15q142 -16 142 -149q0 -83 -56.5 -123.5t-181.5 -40.5q-96 0 -151.5 29zM280 300.5q10 23.5 10 84.5q0 62 -10 86.5t-40 24.5t-40.5 -25t-10.5 -86q0 -58 10.5 -83t40.5 -25t40 23.5zM335.5 -74.5
q27.5 10.5 27.5 37.5q0 23 -18 33.5t-67 14.5l-104 11q-17 -15 -26.5 -28.5t-9.5 -29.5q0 -25 26 -37t86 -12q58 0 85.5 10.5zM132.5 682q-40.5 40 -40.5 112h86q0 -38 15 -55.5t51 -17.5q35 0 50.5 18t15.5 55h85q0 -72 -40 -112t-111 -40t-111.5 40z" />
    <glyph glyph-name="Gdotaccent" unicode="&#x120;" horiz-adv-x="572" 
d="M99.5 60.5q-50.5 72.5 -50.5 207.5v271q0 138 53.5 209.5t183.5 71.5q125 0 178 -61t53 -176v-47h-160v57q0 56 -12.5 82.5t-56.5 26.5q-45 0 -58 -30t-13 -87v-360q0 -57 16 -87.5t60 -30.5q43 0 60.5 32.5t17.5 90.5v86h-79v100h228v-416h-108l-11 72q-37 -84 -133 -84
q-118 0 -168.5 72.5zM214 1034h144v-146h-144v146z" />
    <glyph glyph-name="gdotaccent" unicode="&#x121;" horiz-adv-x="487" 
d="M79.5 -166q-55.5 29 -55.5 86q0 76 89 115q-76 20 -76 85q0 32 15.5 57t48.5 54q-29 25 -43.5 62.5t-14.5 91.5q0 99 50.5 151t146.5 52q89 0 133 -50q10 17 29 33t43 27l20 10l36 -76q-15 -5 -45 -17.5t-47 -22.5q10 -21 15.5 -50t5.5 -58q0 -95 -47.5 -147t-142.5 -52
q-50 0 -89 14q-16 -20 -16 -37q0 -12 12 -19t41 -10l139 -15q142 -16 142 -149q0 -83 -56.5 -123.5t-181.5 -40.5q-96 0 -151.5 29zM280 300.5q10 23.5 10 84.5q0 62 -10 86.5t-40 24.5t-40.5 -25t-10.5 -86q0 -58 10.5 -83t40.5 -25t40 23.5zM335.5 -74.5
q27.5 10.5 27.5 37.5q0 23 -18 33.5t-67 14.5l-104 11q-17 -15 -26.5 -28.5t-9.5 -29.5q0 -25 26 -37t86 -12q58 0 85.5 10.5zM172 802h144v-146h-144v146z" />
    <glyph glyph-name="Gcommaaccent" unicode="&#x122;" horiz-adv-x="572" 
d="M99.5 60.5q-50.5 72.5 -50.5 207.5v271q0 138 53.5 209.5t183.5 71.5q125 0 178 -61t53 -176v-47h-160v57q0 56 -12.5 82.5t-56.5 26.5q-45 0 -58 -30t-13 -87v-360q0 -57 16 -87.5t60 -30.5q43 0 60.5 32.5t17.5 90.5v86h-79v100h228v-416h-108l-11 72q-37 -84 -133 -84
q-118 0 -168.5 72.5zM225 -287q31 5 49 22.5t18 54.5h-78v143h144v-125q-1 -72 -28.5 -110t-89.5 -39z" />
    <glyph glyph-name="gcommaaccent" unicode="&#x123;" horiz-adv-x="487" 
d="M79.5 -166q-55.5 29 -55.5 86q0 76 89 115q-76 20 -76 85q0 32 15.5 57t48.5 54q-29 25 -43.5 62.5t-14.5 91.5q0 99 50.5 151t146.5 52q89 0 133 -50q10 17 29 33t43 27l20 10l36 -76q-15 -5 -45 -17.5t-47 -22.5q10 -21 15.5 -50t5.5 -58q0 -95 -47.5 -147t-142.5 -52
q-50 0 -89 14q-16 -20 -16 -37q0 -12 12 -19t41 -10l139 -15q142 -16 142 -149q0 -83 -56.5 -123.5t-181.5 -40.5q-96 0 -151.5 29zM280 300.5q10 23.5 10 84.5q0 62 -10 86.5t-40 24.5t-40.5 -25t-10.5 -86q0 -58 10.5 -83t40.5 -25t40 23.5zM335.5 -74.5
q27.5 10.5 27.5 37.5q0 23 -18 33.5t-67 14.5l-104 11q-17 -15 -26.5 -28.5t-9.5 -29.5q0 -25 26 -37t86 -12q58 0 85.5 10.5zM305 863q-31 -5 -49 -22.5t-18 -54.5h78v-143h-144v125q1 72 28.5 110t89.5 39z" />
    <glyph glyph-name="Hcircumflex" unicode="&#x124;" horiz-adv-x="599" 
d="M63 810h165v-332h143v332h165v-810h-165v359h-143v-359h-165v810zM235 1066h128l95 -188h-111l-48 120l-47 -120h-110z" />
    <glyph glyph-name="hcircumflex" unicode="&#x125;" horiz-adv-x="496" 
d="M53 810h151v-285q63 63 142 63q49 0 75 -37t26 -95v-456h-150v432q0 24 -8 35.5t-27 11.5q-25 0 -58 -25v-454h-151v810zM64 1066h128l95 -188h-111l-48 120l-47 -120h-110z" />
    <glyph glyph-name="Hbar" unicode="&#x126;" horiz-adv-x="545" 
d="M43 616h-50v56h50v138h165v-138h137v138h165v-138h41v-56h-41v-616h-165v359h-137v-359h-165v616zM345 478v138h-137v-138h137z" />
    <glyph glyph-name="hbar" unicode="&#x127;" horiz-adv-x="496" 
d="M53 675h-50v72h50v63h151v-63h119v-72h-119v-150q63 63 142 63q50 0 76 -37t26 -95v-456h-150v432q0 24 -8 35.5t-28 11.5q-23 0 -58 -25v-454h-151v675z" />
    <glyph glyph-name="Itilde" unicode="&#x128;" horiz-adv-x="289" 
d="M63 810h164v-810h-164v810zM190.5 913.5q-16.5 6.5 -37.5 19.5q-34 21 -54 21q-36 0 -36 -41h-74q-2 135 87 135q17 0 32.5 -6t34.5 -18q18 -10 31 -15.5t27 -5.5q31 0 31 39h69q0 -60 -15.5 -97.5t-60.5 -37.5q-18 0 -34.5 6.5z" />
    <glyph glyph-name="itilde" unicode="&#x129;" horiz-adv-x="268" 
d="M60 578h151v-578h-151v578zM181.5 681.5q-16.5 6.5 -37.5 19.5q-34 21 -54 21q-36 0 -36 -41h-74q-2 135 87 135q17 0 32.5 -6t34.5 -18q18 -10 31 -15.5t27 -5.5q31 0 31 39h69q0 -60 -15.5 -97.5t-60.5 -37.5q-18 0 -34.5 6.5z" />
    <glyph glyph-name="Imacron" unicode="&#x12a;" horiz-adv-x="289" 
d="M63 810h164v-810h-164v810zM16 977h258v-75h-258v75z" />
    <glyph glyph-name="imacron" unicode="&#x12b;" horiz-adv-x="268" 
d="M60 578h151v-578h-151v578zM7 745h258v-75h-258v75z" />
    <glyph glyph-name="Ibreve" unicode="&#x12c;" horiz-adv-x="289" 
d="M63 810h164v-810h-164v810zM33.5 914q-40.5 40 -40.5 112h86q0 -38 15 -55.5t51 -17.5q35 0 50.5 18t15.5 55h85q0 -72 -40 -112t-111 -40t-111.5 40z" />
    <glyph glyph-name="ibreve" unicode="&#x12d;" horiz-adv-x="268" 
d="M60 578h151v-578h-151v578zM24.5 682q-40.5 40 -40.5 112h86q0 -38 15 -55.5t51 -17.5q35 0 50.5 18t15.5 55h85q0 -72 -40 -112t-111 -40t-111.5 40z" />
    <glyph glyph-name="Iogonek" unicode="&#x12e;" horiz-adv-x="289" 
d="M63 810h164v-810h-164v810zM70 -232.5q-44 21.5 -44 82.5q0 39 25.5 82t59.5 68h69q-46 -68 -46 -123q0 -56 67 -56q14 0 30 2l-16 -74q-14 -3 -34 -3q-67 0 -111 21.5z" />
    <glyph glyph-name="iogonek" unicode="&#x12f;" horiz-adv-x="258" 
d="M53 786h152v-113h-152v113zM54 578h151v-578h-151v578zM55 -232.5q-44 21.5 -44 82.5q0 39 25.5 82t59.5 68h69q-46 -68 -46 -123q0 -56 67 -56q14 0 30 2l-16 -74q-14 -3 -34 -3q-67 0 -111 21.5z" />
    <glyph glyph-name="Idotaccent" unicode="&#x130;" horiz-adv-x="289" 
d="M63 810h164v-810h-164v810zM73 1034h144v-146h-144v146z" />
    <glyph glyph-name="dotlessi" unicode="&#x131;" horiz-adv-x="268" 
d="M60 578h151v-578h-151v578z" />
    <glyph glyph-name="IJ" unicode="&#x132;" horiz-adv-x="628" 
d="M63 810h164v-810h-164v810zM301 95q41 0 62 7t30 26t9 58v624h165v-631q0 -69 -16.5 -112.5t-57.5 -65t-112 -21.5h-80v115z" />
    <glyph glyph-name="ij" unicode="&#x133;" horiz-adv-x="525" 
d="M53 786h152v-113h-152v113zM54 578h151v-578h-151v578zM323 786h152v-113h-152v113zM247 -161v108q27 -3 29 -3q47 0 47 53v581h151v-599q0 -70 -38 -111t-109 -41q-44 0 -80 12z" />
    <glyph glyph-name="Jcircumflex" unicode="&#x134;" horiz-adv-x="339" 
d="M12 95q41 0 62 7t30 26t9 58v624h165v-631q0 -69 -16.5 -112.5t-57.5 -65t-112 -21.5h-80v115zM131 1066h128l95 -188h-111l-48 120l-47 -120h-110z" />
    <glyph glyph-name="jcircumflex" unicode="&#x135;" horiz-adv-x="267" 
d="M-11 -161v108q27 -3 29 -3q47 0 47 53v581h151v-599q0 -70 -38 -111t-109 -41q-44 0 -80 12zM76 834h128l95 -188h-111l-48 120l-47 -120h-110z" />
    <glyph glyph-name="Kcommaaccent" unicode="&#x136;" horiz-adv-x="552" 
d="M61 810h164v-342l147 342h160l-152 -364l164 -446h-167l-125 362l-27 -44v-318h-164v810zM215 -287q31 5 49 22.5t18 54.5h-78v143h144v-125q-1 -72 -28.5 -110t-89.5 -39z" />
    <glyph glyph-name="kcommaaccent" unicode="&#x137;" horiz-adv-x="517" 
d="M52 810h150v-456l145 224h168l-150 -235l148 -343h-163l-103 280l-45 -60v-220h-150v810zM198 -287q31 5 49 22.5t18 54.5h-78v143h144v-125q-1 -72 -28.5 -110t-89.5 -39z" />
    <glyph glyph-name="kgreenlandic" unicode="&#x138;" horiz-adv-x="492" 
d="M52 578h151v-244l120 244h161l-121 -250l123 -328h-158l-93 271l-32 -48v-223h-151v578z" />
    <glyph glyph-name="Lacute" unicode="&#x139;" horiz-adv-x="433" 
d="M61 810h164v-698h191v-112h-355v810zM156 1071h154l-123 -201h-92z" />
    <glyph glyph-name="lacute" unicode="&#x13a;" horiz-adv-x="264" 
d="M59 810h150v-810h-150v810zM147 1071h154l-123 -201h-92z" />
    <glyph glyph-name="Lcommaaccent" unicode="&#x13b;" horiz-adv-x="433" 
d="M61 810h164v-698h191v-112h-355v810zM177 -287q31 5 49 22.5t18 54.5h-78v143h144v-125q-1 -72 -28.5 -110t-89.5 -39z" />
    <glyph glyph-name="lcommaaccent" unicode="&#x13c;" horiz-adv-x="264" 
d="M59 810h150v-810h-150v810zM73 -287q31 5 49 22.5t18 54.5h-78v143h144v-125q-1 -72 -28.5 -110t-89.5 -39z" />
    <glyph glyph-name="Lcaron" unicode="&#x13d;" horiz-adv-x="433" 
d="M61 810h164v-698h191v-112h-355v810zM305 577q69 19 69 87h-80v146h145v-129q0 -140 -122 -154z" />
    <glyph glyph-name="lcaron" unicode="&#x13e;" horiz-adv-x="387" 
d="M59 810h150v-810h-150v810zM270 577q69 19 69 87h-80v146h145v-129q0 -140 -122 -154z" />
    <glyph glyph-name="Ldot" unicode="&#x13f;" horiz-adv-x="433" 
d="M61 810h164v-698h191v-112h-355v810zM308 522h104v-143h-104v143z" />
    <glyph glyph-name="ldot" unicode="&#x140;" horiz-adv-x="346" 
d="M59 810h150v-810h-150v810zM256 512h104v-143h-104v143z" />
    <glyph glyph-name="Lslash" unicode="&#x141;" horiz-adv-x="439" 
d="M67 362l-62 -30v95l62 31v352h165v-273l100 49v-95l-100 -49v-330h190v-112h-355v362z" />
    <glyph glyph-name="lslash" unicode="&#x142;" horiz-adv-x="319" 
d="M86 414l-67 -30v90l67 30v306h151v-241l73 32v-90l-73 -31v-480h-151v414z" />
    <glyph glyph-name="Nacute" unicode="&#x143;" horiz-adv-x="554" 
d="M61 810h115l180 -421v421h137v-810h-111l-180 448v-448h-141v810zM290 1071h154l-123 -201h-92z" />
    <glyph glyph-name="nacute" unicode="&#x144;" horiz-adv-x="493" 
d="M52 578h150v-58q70 68 140 68q50 0 76.5 -37t26.5 -95v-456h-151v432q0 24 -8 35.5t-27 11.5q-23 0 -57 -24v-455h-150v578zM260 839h154l-123 -201h-92z" />
    <glyph glyph-name="Ncommaaccent" unicode="&#x145;" horiz-adv-x="554" 
d="M61 810h115l180 -421v421h137v-810h-111l-180 448v-448h-141v810zM216 -287q31 5 49 22.5t18 54.5h-78v143h144v-125q-1 -72 -28.5 -110t-89.5 -39z" />
    <glyph glyph-name="ncommaaccent" unicode="&#x146;" horiz-adv-x="493" 
d="M52 578h150v-58q70 68 140 68q50 0 76.5 -37t26.5 -95v-456h-151v432q0 24 -8 35.5t-27 11.5q-23 0 -57 -24v-455h-150v578zM186 -287q31 5 49 22.5t18 54.5h-78v143h144v-125q-1 -72 -28.5 -110t-89.5 -39z" />
    <glyph glyph-name="Ncaron" unicode="&#x147;" horiz-adv-x="554" 
d="M61 810h115l180 -421v421h137v-810h-111l-180 448v-448h-141v810zM116 1054h108l53 -111l53 111h108l-88 -183h-147z" />
    <glyph glyph-name="ncaron" unicode="&#x148;" horiz-adv-x="493" 
d="M52 578h150v-58q70 68 140 68q50 0 76.5 -37t26.5 -95v-456h-151v432q0 24 -8 35.5t-27 11.5q-23 0 -57 -24v-455h-150v578zM86 822h108l53 -111l53 111h108l-88 -183h-147z" />
    <glyph glyph-name="napostrophe" unicode="&#x149;" horiz-adv-x="567" 
d="M39 673q68 19 68 87h-79v146h145v-129q-2 -140 -122 -155zM139 578h150v-58q70 68 140 68q50 0 76.5 -37t26.5 -95v-456h-151v432q0 24 -8 35.5t-27 11.5q-23 0 -57 -24v-455h-150v578z" />
    <glyph glyph-name="Eng" unicode="&#x14a;" horiz-adv-x="560" 
d="M250 -103q47 0 72 8.5t35 28.5t10 56v79l-165 379v-448h-139v810h116l182 -421v421h135v-810q0 -71 -15.5 -114.5t-54.5 -66t-110 -22.5h-66v100z" />
    <glyph glyph-name="eng" unicode="&#x14b;" horiz-adv-x="458" 
d="M173 -94q47 0 70.5 8t32.5 26.5t9 54.5v437q0 24 -7.5 35.5t-27.5 11.5q-26 0 -56 -24v-455h-151v578h151v-52q62 62 140 62q50 0 76 -37t26 -95v-462q0 -99 -48.5 -143t-161.5 -44h-53v99z" />
    <glyph glyph-name="Omacron" unicode="&#x14c;" horiz-adv-x="576" 
d="M104 56.5q-55 67.5 -55 198.5v302q0 131 55 197t184 66q128 0 183.5 -66.5t55.5 -196.5v-303q0 -130 -55.5 -197.5t-183.5 -67.5q-129 0 -184 67.5zM344.5 135.5q14.5 28.5 14.5 78.5v383q0 50 -14.5 77.5t-56.5 27.5t-56.5 -27.5t-14.5 -77.5v-383q0 -51 14 -79t57 -28
q42 0 56.5 28.5zM159 977h258v-75h-258v75z" />
    <glyph glyph-name="omacron" unicode="&#x14d;" 
d="M90.5 40q-50.5 50 -50.5 145v208q0 95 50.5 145t144.5 50t144.5 -50t50.5 -145v-208q0 -95 -50.5 -145t-144.5 -50t-144.5 50zM271.5 112.5q9.5 20.5 9.5 61.5v229q0 41 -9.5 62t-35.5 21q-27 0 -37 -21.5t-10 -61.5v-229q0 -40 10 -61t37 -21q26 0 35.5 20.5zM106 745
h258v-75h-258v75z" />
    <glyph glyph-name="Obreve" unicode="&#x14e;" horiz-adv-x="576" 
d="M104 56.5q-55 67.5 -55 198.5v302q0 131 55 197t184 66q128 0 183.5 -66.5t55.5 -196.5v-303q0 -130 -55.5 -197.5t-183.5 -67.5q-129 0 -184 67.5zM344.5 135.5q14.5 28.5 14.5 78.5v383q0 50 -14.5 77.5t-56.5 27.5t-56.5 -27.5t-14.5 -77.5v-383q0 -51 14 -79t57 -28
q42 0 56.5 28.5zM176.5 914q-40.5 40 -40.5 112h86q0 -38 15 -55.5t51 -17.5q35 0 50.5 18t15.5 55h85q0 -72 -40 -112t-111 -40t-111.5 40z" />
    <glyph glyph-name="obreve" unicode="&#x14f;" 
d="M90.5 40q-50.5 50 -50.5 145v208q0 95 50.5 145t144.5 50t144.5 -50t50.5 -145v-208q0 -95 -50.5 -145t-144.5 -50t-144.5 50zM271.5 112.5q9.5 20.5 9.5 61.5v229q0 41 -9.5 62t-35.5 21q-27 0 -37 -21.5t-10 -61.5v-229q0 -40 10 -61t37 -21q26 0 35.5 20.5zM123.5 682
q-40.5 40 -40.5 112h86q0 -38 15 -55.5t51 -17.5q35 0 50.5 18t15.5 55h85q0 -72 -40 -112t-111 -40t-111.5 40z" />
    <glyph glyph-name="Ohungarumlaut" unicode="&#x150;" horiz-adv-x="576" 
d="M104 56.5q-55 67.5 -55 198.5v302q0 131 55 197t184 66q128 0 183.5 -66.5t55.5 -196.5v-303q0 -130 -55.5 -197.5t-183.5 -67.5q-129 0 -184 67.5zM344.5 135.5q14.5 28.5 14.5 78.5v383q0 50 -14.5 77.5t-56.5 27.5t-56.5 -27.5t-14.5 -77.5v-383q0 -51 14 -79t57 -28
q42 0 56.5 28.5zM218 1073h123l-101 -206h-77zM392 1073h134l-119 -206h-78z" />
    <glyph glyph-name="ohungarumlaut" unicode="&#x151;" 
d="M90.5 40q-50.5 50 -50.5 145v208q0 95 50.5 145t144.5 50t144.5 -50t50.5 -145v-208q0 -95 -50.5 -145t-144.5 -50t-144.5 50zM271.5 112.5q9.5 20.5 9.5 61.5v229q0 41 -9.5 62t-35.5 21q-27 0 -37 -21.5t-10 -61.5v-229q0 -40 10 -61t37 -21q26 0 35.5 20.5zM165 841
h123l-101 -206h-77zM339 841h134l-119 -206h-78z" />
    <glyph glyph-name="OE" unicode="&#x152;" horiz-adv-x="710" 
d="M105 69q-56 69 -56 202v254q0 134 56 208.5t185 74.5h393v-114h-174v-218h132v-116h-132v-248h175v-112h-391q-132 0 -188 69zM345 115v576h-52q-36 0 -53 -19t-21.5 -48.5t-4.5 -77.5v-299q0 -44 5 -71t22.5 -44t52.5 -17h51z" />
    <glyph glyph-name="oe" unicode="&#x153;" horiz-adv-x="701" 
d="M90 37.5q-46 49.5 -46 142.5v235q0 90 46 136.5t130 46.5q45 0 83.5 -19t52.5 -53q15 34 54.5 53t81.5 19q92 0 130.5 -54t38.5 -157v-106h-224v-89q0 -50 9.5 -77.5t34.5 -27.5q20 0 28.5 16.5t8.5 49.5v69h143v-68q0 -80 -42 -123t-122 -43q-53 0 -90.5 19t-53.5 53
q-38 -72 -139 -72q-78 0 -124 49.5zM270.5 108q10.5 21 10.5 68v245q0 40 -10 60t-34 20t-34 -19.5t-10 -60.5v-244q0 -43 9 -66.5t33 -23.5q25 0 35.5 21zM519 360v70q0 32 -10 51.5t-31 19.5q-20 0 -30.5 -19t-10.5 -52v-70h82z" />
    <glyph glyph-name="Racute" unicode="&#x154;" horiz-adv-x="583" 
d="M61 810h210q131 0 197 -48t66 -166q0 -79 -22 -127.5t-78 -73.5l112 -395h-169l-92 367h-60v-367h-164v810zM274 465q58 0 81.5 28.5t23.5 89.5q0 60 -21 88t-76 28h-57v-234h49zM305 1071h154l-123 -201h-92z" />
    <glyph glyph-name="racute" unicode="&#x155;" horiz-adv-x="370" 
d="M54 578h151v-93q30 52 58.5 76t66.5 24q9 0 23 -2v-154q-26 12 -54 12q-55 0 -94 -56v-385h-151v578zM208 839h154l-123 -201h-92z" />
    <glyph glyph-name="Rcommaaccent" unicode="&#x156;" horiz-adv-x="583" 
d="M61 810h210q131 0 197 -48t66 -166q0 -79 -22 -127.5t-78 -73.5l112 -395h-169l-92 367h-60v-367h-164v810zM274 465q58 0 81.5 28.5t23.5 89.5q0 60 -21 88t-76 28h-57v-234h49zM231 -287q31 5 49 22.5t18 54.5h-78v143h144v-125q-1 -72 -28.5 -110t-89.5 -39z" />
    <glyph glyph-name="rcommaaccent" unicode="&#x157;" horiz-adv-x="370" 
d="M54 578h151v-93q30 52 58.5 76t66.5 24q9 0 23 -2v-154q-26 12 -54 12q-55 0 -94 -56v-385h-151v578zM69 -287q31 5 49 22.5t18 54.5h-78v143h144v-125q-1 -72 -28.5 -110t-89.5 -39z" />
    <glyph glyph-name="Rcaron" unicode="&#x158;" horiz-adv-x="583" 
d="M61 810h210q131 0 197 -48t66 -166q0 -79 -22 -127.5t-78 -73.5l112 -395h-169l-92 367h-60v-367h-164v810zM274 465q58 0 81.5 28.5t23.5 89.5q0 60 -21 88t-76 28h-57v-234h49zM131 1054h108l53 -111l53 111h108l-88 -183h-147z" />
    <glyph glyph-name="rcaron" unicode="&#x159;" horiz-adv-x="370" 
d="M54 578h151v-93q30 52 58.5 76t66.5 24q9 0 23 -2v-154q-26 12 -54 12q-55 0 -94 -56v-385h-151v578zM34 822h108l53 -111l53 111h108l-88 -183h-147z" />
    <glyph glyph-name="Sacute" unicode="&#x15a;" horiz-adv-x="505" 
d="M102 50.5q-56 61.5 -61 190.5l142 24q2 -77 21.5 -113.5t58.5 -36.5q29 0 42 18.5t13 47.5q0 48 -21.5 81.5t-67.5 73.5l-84 73q-50 42 -76.5 90t-26.5 115q0 99 58.5 152.5t161.5 53.5q110 0 153 -63.5t49 -161.5l-143 -21q-2 64 -14.5 94.5t-49.5 30.5q-27 0 -42 -20.5
t-15 -48.5q0 -40 17.5 -67.5t55.5 -60.5l82 -72q58 -51 91 -107.5t33 -132.5q0 -58 -26 -103.5t-73.5 -71.5t-109.5 -26q-112 0 -168 61.5zM266 1071h154l-123 -201h-92z" />
    <glyph glyph-name="sacute" unicode="&#x15b;" horiz-adv-x="413" 
d="M96 26.5q-49 36.5 -75 112.5l106 44q30 -89 85 -89q21 0 31.5 9.5t10.5 26.5q0 23 -14.5 41t-57.5 55l-54 46q-48 41 -71 76t-23 84q0 46 23 81.5t62.5 55t86.5 19.5q70 0 115.5 -39.5t62.5 -110.5l-98 -44q-9 36 -29 61.5t-47 25.5q-18 0 -29 -10.5t-11 -27.5t17 -36.5
t53 -50.5l54 -48q47 -40 73.5 -77t26.5 -86q0 -48 -23.5 -83t-63.5 -53.5t-87 -18.5q-75 0 -124 36.5zM220 839h154l-123 -201h-92z" />
    <glyph glyph-name="Scircumflex" unicode="&#x15c;" horiz-adv-x="505" 
d="M102 50.5q-56 61.5 -61 190.5l142 24q2 -77 21.5 -113.5t58.5 -36.5q29 0 42 18.5t13 47.5q0 48 -21.5 81.5t-67.5 73.5l-84 73q-50 42 -76.5 90t-26.5 115q0 99 58.5 152.5t161.5 53.5q110 0 153 -63.5t49 -161.5l-143 -21q-2 64 -14.5 94.5t-49.5 30.5q-27 0 -42 -20.5
t-15 -48.5q0 -40 17.5 -67.5t55.5 -60.5l82 -72q58 -51 91 -107.5t33 -132.5q0 -58 -26 -103.5t-73.5 -71.5t-109.5 -26q-112 0 -168 61.5zM188 1066h128l95 -188h-111l-48 120l-47 -120h-110z" />
    <glyph glyph-name="scircumflex" unicode="&#x15d;" horiz-adv-x="413" 
d="M96 26.5q-49 36.5 -75 112.5l106 44q30 -89 85 -89q21 0 31.5 9.5t10.5 26.5q0 23 -14.5 41t-57.5 55l-54 46q-48 41 -71 76t-23 84q0 46 23 81.5t62.5 55t86.5 19.5q70 0 115.5 -39.5t62.5 -110.5l-98 -44q-9 36 -29 61.5t-47 25.5q-18 0 -29 -10.5t-11 -27.5t17 -36.5
t53 -50.5l54 -48q47 -40 73.5 -77t26.5 -86q0 -48 -23.5 -83t-63.5 -53.5t-87 -18.5q-75 0 -124 36.5zM142 834h128l95 -188h-111l-48 120l-47 -120h-110z" />
    <glyph glyph-name="Scedilla" unicode="&#x15e;" horiz-adv-x="505" 
d="M102 50.5q-56 61.5 -61 190.5l142 24q2 -77 21.5 -113.5t58.5 -36.5q29 0 42 18.5t13 47.5q0 48 -21.5 81.5t-67.5 73.5l-84 73q-50 42 -76.5 90t-26.5 115q0 99 58.5 152.5t161.5 53.5q110 0 153 -63.5t49 -161.5l-143 -21q-2 64 -14.5 94.5t-49.5 30.5q-27 0 -42 -20.5
t-15 -48.5q0 -40 17.5 -67.5t55.5 -60.5l82 -72q58 -51 91 -107.5t33 -132.5q0 -58 -26 -103.5t-73.5 -71.5t-109.5 -26q-112 0 -168 61.5zM197 -257v67q30 -8 56 -8q28 0 45 8.5t17 27.5q0 25 -26 37.5t-65 15.5v109h58v-64q62 0 97 -25.5t35 -74.5q0 -52 -40.5 -78
t-102.5 -26q-36 0 -74 11z" />
    <glyph glyph-name="scedilla" unicode="&#x15f;" horiz-adv-x="413" 
d="M96 26.5q-49 36.5 -75 112.5l106 44q30 -89 85 -89q21 0 31.5 9.5t10.5 26.5q0 23 -14.5 41t-57.5 55l-54 46q-48 41 -71 76t-23 84q0 46 23 81.5t62.5 55t86.5 19.5q70 0 115.5 -39.5t62.5 -110.5l-98 -44q-9 36 -29 61.5t-47 25.5q-18 0 -29 -10.5t-11 -27.5t17 -36.5
t53 -50.5l54 -48q47 -40 73.5 -77t26.5 -86q0 -48 -23.5 -83t-63.5 -53.5t-87 -18.5q-75 0 -124 36.5zM151 -257v67q30 -8 56 -8q28 0 45 8.5t17 27.5q0 25 -26 37.5t-65 15.5v109h58v-64q62 0 97 -25.5t35 -74.5q0 -52 -40.5 -78t-102.5 -26q-36 0 -74 11z" />
    <glyph glyph-name="Scaron" unicode="&#x160;" horiz-adv-x="505" 
d="M102 50.5q-56 61.5 -61 190.5l142 24q2 -77 21.5 -113.5t58.5 -36.5q29 0 42 18.5t13 47.5q0 48 -21.5 81.5t-67.5 73.5l-84 73q-50 42 -76.5 90t-26.5 115q0 99 58.5 152.5t161.5 53.5q110 0 153 -63.5t49 -161.5l-143 -21q-2 64 -14.5 94.5t-49.5 30.5q-27 0 -42 -20.5
t-15 -48.5q0 -40 17.5 -67.5t55.5 -60.5l82 -72q58 -51 91 -107.5t33 -132.5q0 -58 -26 -103.5t-73.5 -71.5t-109.5 -26q-112 0 -168 61.5zM92 1054h108l53 -111l53 111h108l-88 -183h-147z" />
    <glyph glyph-name="scaron" unicode="&#x161;" horiz-adv-x="413" 
d="M96 26.5q-49 36.5 -75 112.5l106 44q30 -89 85 -89q21 0 31.5 9.5t10.5 26.5q0 23 -14.5 41t-57.5 55l-54 46q-48 41 -71 76t-23 84q0 46 23 81.5t62.5 55t86.5 19.5q70 0 115.5 -39.5t62.5 -110.5l-98 -44q-9 36 -29 61.5t-47 25.5q-18 0 -29 -10.5t-11 -27.5t17 -36.5
t53 -50.5l54 -48q47 -40 73.5 -77t26.5 -86q0 -48 -23.5 -83t-63.5 -53.5t-87 -18.5q-75 0 -124 36.5zM46 822h108l53 -111l53 111h108l-88 -183h-147z" />
    <glyph glyph-name="uni0162" unicode="&#x162;" horiz-adv-x="438" 
d="M137 688h-125v122h414v-122h-123v-688h-166v688zM163 -257v67q30 -8 56 -8q28 0 45 8.5t17 27.5q0 25 -26 37.5t-65 15.5v109h58v-64q62 0 97 -25.5t35 -74.5q0 -52 -40.5 -78t-102.5 -26q-36 0 -74 11z" />
    <glyph glyph-name="uni0163" unicode="&#x163;" horiz-adv-x="344" 
d="M104.5 32q-33.5 39 -33.5 119v328h-57v99h57v174h153v-174h84v-99h-84v-313q0 -51 51 -51q27 0 43 4v-118q-53 -8 -93 -8q-87 0 -120.5 39zM160 -257v67q30 -8 56 -8q28 0 45 8.5t17 27.5q0 25 -26 37.5t-65 15.5v109h58v-64q62 0 97 -25.5t35 -74.5q0 -52 -40.5 -78
t-102.5 -26q-36 0 -74 11z" />
    <glyph glyph-name="Tcaron" unicode="&#x164;" horiz-adv-x="438" 
d="M137 688h-125v122h414v-122h-123v-688h-166v688zM58 1054h108l53 -111l53 111h108l-88 -183h-147z" />
    <glyph glyph-name="tcaron" unicode="&#x165;" horiz-adv-x="414" 
d="M104.5 32q-33.5 39 -33.5 119v328h-57v99h57v174h153v-174h84v-99h-84v-313q0 -51 51 -51q27 0 43 4v-118q-53 -8 -93 -8q-87 0 -120.5 39zM279 674q69 19 69 87h-80v146h145v-129q0 -140 -122 -154z" />
    <glyph glyph-name="Tbar" unicode="&#x166;" horiz-adv-x="437" 
d="M303 688v-232h93v-82h-93v-374h-166v374h-92v82h92v232h-125v122h414v-122h-123z" />
    <glyph glyph-name="tbar" unicode="&#x167;" horiz-adv-x="317" 
d="M318 119v-118q-53 -8 -93 -8q-87 0 -120.5 39t-33.5 119v160h-55v67h55v101h-57v99h57v174h153v-174h84v-99h-84v-101h86v-67h-86v-145q0 -51 51 -51q27 0 43 4z" />
    <glyph glyph-name="Utilde" unicode="&#x168;" horiz-adv-x="578" 
d="M148 19.5q-51 30.5 -72 88.5t-21 148v554h162v-577q0 -58 14 -91t58 -33t58 33t14 91v577h163v-554q0 -90 -21 -148t-72.5 -88.5t-141.5 -30.5t-141 30.5zM335.5 913.5q-16.5 6.5 -37.5 19.5q-34 21 -54 21q-36 0 -36 -41h-74q-2 135 87 135q17 0 32.5 -6t34.5 -18
q18 -10 31 -15.5t27 -5.5q31 0 31 39h69q0 -60 -15.5 -97.5t-60.5 -37.5q-18 0 -34.5 6.5z" />
    <glyph glyph-name="utilde" unicode="&#x169;" horiz-adv-x="490" 
d="M72.5 27q-26.5 37 -26.5 95v456h151v-435q0 -24 8.5 -36t28.5 -12q21 0 53 22v461h151v-578h-151v54q-69 -64 -138 -64q-50 0 -76.5 37zM290.5 681.5q-16.5 6.5 -37.5 19.5q-34 21 -54 21q-36 0 -36 -41h-74q-2 135 87 135q17 0 32.5 -6t34.5 -18q18 -10 31 -15.5
t27 -5.5q31 0 31 39h69q0 -60 -15.5 -97.5t-60.5 -37.5q-18 0 -34.5 6.5z" />
    <glyph glyph-name="Umacron" unicode="&#x16a;" horiz-adv-x="578" 
d="M148 19.5q-51 30.5 -72 88.5t-21 148v554h162v-577q0 -58 14 -91t58 -33t58 33t14 91v577h163v-554q0 -90 -21 -148t-72.5 -88.5t-141.5 -30.5t-141 30.5zM161 977h258v-75h-258v75z" />
    <glyph glyph-name="umacron" unicode="&#x16b;" horiz-adv-x="490" 
d="M72.5 27q-26.5 37 -26.5 95v456h151v-435q0 -24 8.5 -36t28.5 -12q21 0 53 22v461h151v-578h-151v54q-69 -64 -138 -64q-50 0 -76.5 37zM116 745h258v-75h-258v75z" />
    <glyph glyph-name="Ubreve" unicode="&#x16c;" horiz-adv-x="578" 
d="M148 19.5q-51 30.5 -72 88.5t-21 148v554h162v-577q0 -58 14 -91t58 -33t58 33t14 91v577h163v-554q0 -90 -21 -148t-72.5 -88.5t-141.5 -30.5t-141 30.5zM178.5 914q-40.5 40 -40.5 112h86q0 -38 15 -55.5t51 -17.5q35 0 50.5 18t15.5 55h85q0 -72 -40 -112t-111 -40
t-111.5 40z" />
    <glyph glyph-name="ubreve" unicode="&#x16d;" horiz-adv-x="490" 
d="M72.5 27q-26.5 37 -26.5 95v456h151v-435q0 -24 8.5 -36t28.5 -12q21 0 53 22v461h151v-578h-151v54q-69 -64 -138 -64q-50 0 -76.5 37zM133.5 682q-40.5 40 -40.5 112h86q0 -38 15 -55.5t51 -17.5q35 0 50.5 18t15.5 55h85q0 -72 -40 -112t-111 -40t-111.5 40z" />
    <glyph glyph-name="Uring" unicode="&#x16e;" horiz-adv-x="578" 
d="M148 19.5q-51 30.5 -72 88.5t-21 148v554h162v-577q0 -58 14 -91t58 -33t58 33t14 91v577h163v-554q0 -90 -21 -148t-72.5 -88.5t-141.5 -30.5t-141 30.5zM206.5 877q-32.5 29 -32.5 81t32.5 81t82.5 29t83.5 -29.5t33.5 -80.5q0 -52 -33 -81t-84 -29q-50 0 -82.5 29z
M327.5 920q13.5 15 13.5 38q0 24 -13.5 39t-38.5 15q-24 0 -37.5 -15t-13.5 -39q0 -23 13.5 -38t37.5 -15q25 0 38.5 15z" />
    <glyph glyph-name="uring" unicode="&#x16f;" horiz-adv-x="490" 
d="M72.5 27q-26.5 37 -26.5 95v456h151v-435q0 -24 8.5 -36t28.5 -12q21 0 53 22v461h151v-578h-151v54q-69 -64 -138 -64q-50 0 -76.5 37zM161.5 645q-32.5 29 -32.5 81t32.5 81t82.5 29t83.5 -29.5t33.5 -80.5q0 -52 -33 -81t-84 -29q-50 0 -82.5 29zM282.5 688
q13.5 15 13.5 38q0 24 -13.5 39t-38.5 15q-24 0 -37.5 -15t-13.5 -39q0 -23 13.5 -38t37.5 -15q25 0 38.5 15z" />
    <glyph glyph-name="Uhungarumlaut" unicode="&#x170;" horiz-adv-x="578" 
d="M148 19.5q-51 30.5 -72 88.5t-21 148v554h162v-577q0 -58 14 -91t58 -33t58 33t14 91v577h163v-554q0 -90 -21 -148t-72.5 -88.5t-141.5 -30.5t-141 30.5zM220 1073h123l-101 -206h-77zM394 1073h134l-119 -206h-78z" />
    <glyph glyph-name="uhungarumlaut" unicode="&#x171;" horiz-adv-x="490" 
d="M72.5 27q-26.5 37 -26.5 95v456h151v-435q0 -24 8.5 -36t28.5 -12q21 0 53 22v461h151v-578h-151v54q-69 -64 -138 -64q-50 0 -76.5 37zM175 841h123l-101 -206h-77zM349 841h134l-119 -206h-78z" />
    <glyph glyph-name="Uogonek" unicode="&#x172;" horiz-adv-x="578" 
d="M148 19.5q-51 30.5 -72 88.5t-21 148v554h162v-577q0 -58 14 -91t58 -33t58 33t14 91v577h163v-554q0 -90 -21 -148t-72.5 -88.5t-141.5 -30.5t-141 30.5zM242 -232.5q-44 21.5 -44 82.5q0 39 25.5 82t59.5 68h69q-46 -68 -46 -123q0 -56 67 -56q14 0 30 2l-16 -74
q-14 -3 -34 -3q-67 0 -111 21.5z" />
    <glyph glyph-name="uogonek" unicode="&#x173;" horiz-adv-x="490" 
d="M72.5 27q-26.5 37 -26.5 95v456h151v-435q0 -24 8.5 -36t28.5 -12q21 0 53 22v461h151v-578h-151v54q-69 -64 -138 -64q-50 0 -76.5 37zM288 -232.5q-44 21.5 -44 82.5q0 39 25.5 82t59.5 68h69q-46 -68 -46 -123q0 -56 67 -56q14 0 30 2l-16 -74q-14 -3 -34 -3
q-67 0 -111 21.5z" />
    <glyph glyph-name="Wcircumflex" unicode="&#x174;" horiz-adv-x="704" 
d="M29 810h139l57 -495l71 494h111l74 -492l57 493h137l-104 -810h-141l-78 513l-75 -513h-143zM287 1066h128l95 -188h-111l-48 120l-47 -120h-110z" />
    <glyph glyph-name="wcircumflex" unicode="&#x175;" horiz-adv-x="595" 
d="M23 578h125l46 -349l52 349h110l47 -354l51 354h119l-89 -578h-129l-56 343l-61 -343h-129zM233 834h128l95 -188h-111l-48 120l-47 -120h-110z" />
    <glyph glyph-name="Ycircumflex" unicode="&#x176;" horiz-adv-x="491" 
d="M167 321l-158 489h155l87 -285l80 285h151l-156 -489v-321h-159v321zM181 1066h128l95 -188h-111l-48 120l-47 -120h-110z" />
    <glyph glyph-name="ycircumflex" unicode="&#x177;" horiz-adv-x="436" 
d="M62 -57q51 0 73.5 10.5t22.5 37.5q0 13 -6.5 41t-14.5 58l-132 488h144l73 -355l60 355h144l-134 -596q-18 -80 -67 -112.5t-131 -32.5h-32v106zM153 834h128l95 -188h-111l-48 120l-47 -120h-110z" />
    <glyph glyph-name="Ydieresis" unicode="&#x178;" horiz-adv-x="491" 
d="M167 321l-158 489h155l87 -285l80 285h151l-156 -489v-321h-159v321zM79 1042h125v-140h-125v140zM287 1042h126v-140h-126v140z" />
    <glyph glyph-name="Zacute" unicode="&#x179;" horiz-adv-x="429" 
d="M31 102l207 595h-197v113h360v-90l-211 -608h213v-112h-372v102zM228 1071h154l-123 -201h-92z" />
    <glyph glyph-name="zacute" unicode="&#x17a;" horiz-adv-x="382" 
d="M34 98l163 370h-149v110h307v-90l-164 -377h165v-111h-322v98zM205 839h154l-123 -201h-92z" />
    <glyph glyph-name="Zdotaccent" unicode="&#x17b;" horiz-adv-x="429" 
d="M31 102l207 595h-197v113h360v-90l-211 -608h213v-112h-372v102zM143 1034h144v-146h-144v146z" />
    <glyph glyph-name="zdotaccent" unicode="&#x17c;" horiz-adv-x="382" 
d="M34 98l163 370h-149v110h307v-90l-164 -377h165v-111h-322v98zM120 802h144v-146h-144v146z" />
    <glyph glyph-name="Zcaron" unicode="&#x17d;" horiz-adv-x="429" 
d="M31 102l207 595h-197v113h360v-90l-211 -608h213v-112h-372v102zM54 1054h108l53 -111l53 111h108l-88 -183h-147z" />
    <glyph glyph-name="zcaron" unicode="&#x17e;" horiz-adv-x="382" 
d="M34 98l163 370h-149v110h307v-90l-164 -377h165v-111h-322v98zM31 822h108l53 -111l53 111h108l-88 -183h-147z" />
    <glyph glyph-name="longs" unicode="&#x17f;" horiz-adv-x="313" 
d="M75 475h-58v103h58v40q0 58 11 94t43.5 56t96.5 20q41 0 77 -5v-112q-25 5 -36 5q-41 0 -41 -51v-625h-151v475z" />
    <glyph glyph-name="uni018F" unicode="&#x18f;" horiz-adv-x="572" 
d="M106 53.5q-61 64.5 -61 186.5v181h310v181q0 53 -16.5 76.5t-54.5 23.5t-54.5 -23.5t-16.5 -76.5v-106h-168v75q0 122 61.5 185.5t179.5 63.5q114 0 175.5 -67.5t61.5 -189.5v-317q0 -121 -62 -189t-175 -68q-119 0 -180 64.5zM338.5 131.5q16.5 24.5 16.5 76.5v109h-142
v-109q0 -52 16.5 -76.5t54.5 -24.5t54.5 24.5z" />
    <glyph glyph-name="florin" unicode="&#x192;" horiz-adv-x="443" 
d="M17 -162l11 112q20 -4 35 -4q22 0 33 12t14 38l50 476h-59v106h70l5 43q6 57 20.5 92t49.5 55t99 20q39 0 75 -5l-12 -112q-25 5 -35 5q-41 0 -46 -51l-5 -47h66v-106h-78l-49 -472q-6 -57 -20.5 -92.5t-50 -55t-99.5 -19.5q-26 0 -74 5z" />
    <glyph glyph-name="Ohorn" unicode="&#x1a0;" horiz-adv-x="576" 
d="M104 56.5q-55 67.5 -55 198.5v302q0 131 55 197t184 66q128 0 183.5 -66.5t55.5 -196.5v-303q0 -130 -55.5 -197.5t-183.5 -67.5q-129 0 -184 67.5zM344.5 135.5q14.5 28.5 14.5 78.5v383q0 50 -14.5 77.5t-56.5 27.5t-56.5 -27.5t-14.5 -77.5v-383q0 -51 14 -79t57 -28
q42 0 56.5 28.5zM338 810h20q29 0 41.5 20t12.5 63h107q0 -72 -43 -109t-117 -37h-21v63z" />
    <glyph glyph-name="ohorn" unicode="&#x1a1;" 
d="M90.5 40q-50.5 50 -50.5 145v208q0 95 50.5 145t144.5 50t144.5 -50t50.5 -145v-208q0 -95 -50.5 -145t-144.5 -50t-144.5 50zM271.5 112.5q9.5 20.5 9.5 61.5v229q0 41 -9.5 62t-35.5 21q-27 0 -37 -21.5t-10 -61.5v-229q0 -40 10 -61t37 -21q26 0 35.5 20.5zM259 578
h10q29 0 41.5 20t12.5 63h107q0 -72 -43 -109t-117 -37h-11v63z" />
    <glyph glyph-name="Uhorn" unicode="&#x1af;" horiz-adv-x="578" 
d="M148 19.5q-51 30.5 -72 88.5t-21 148v554h162v-577q0 -58 14 -91t58 -33t58 33t14 91v577h163v-554q0 -90 -21 -148t-72.5 -88.5t-141.5 -30.5t-141 30.5zM422 810h10q29 0 41.5 20t12.5 63h107q0 -72 -43 -109t-117 -37h-11v63z" />
    <glyph glyph-name="uhorn" unicode="&#x1b0;" horiz-adv-x="490" 
d="M72.5 27q-26.5 37 -26.5 95v456h151v-435q0 -24 8.5 -36t28.5 -12q21 0 53 22v461h151v-578h-151v54q-69 -64 -138 -64q-50 0 -76.5 37zM330 578h10q29 0 41.5 20t12.5 63h107q0 -72 -43 -109t-117 -37h-11v63z" />
    <glyph glyph-name="uni01B7" unicode="&#x1b7;" horiz-adv-x="493" 
d="M415.5 427.5q44.5 -66.5 44.5 -191.5q0 -117 -52 -183.5t-165 -66.5q-116 0 -167 64t-51 181v28h154v-27q0 -68 14 -97.5t51 -29.5t50 30t13 98q0 64 -10 100t-36 53t-75 17h-87v84l156 210h-208v113h379v-90l-170 -226h1q114 0 158.5 -66.5z" />
    <glyph glyph-name="uni01C4" unicode="&#x1c4;" horiz-adv-x="996" 
d="M61 810h198q102 0 159.5 -26.5t82 -81.5t24.5 -146v-295q0 -93 -24 -149.5t-81 -84t-157 -27.5h-202v810zM261 115q43 0 63.5 13.5t26 39.5t5.5 75v335q0 46 -6.5 69.5t-26.5 35t-63 11.5h-35v-579h36zM598 102l207 595h-197v113h360v-90l-211 -608h213v-112h-372v102z
M621 1054h108l53 -111l53 111h108l-88 -183h-147z" />
    <glyph glyph-name="uni01C5" unicode="&#x1c5;" horiz-adv-x="955" 
d="M61 810h198q102 0 159.5 -26.5t82 -81.5t24.5 -146v-295q0 -93 -24 -149.5t-81 -84t-157 -27.5h-202v810zM261 115q43 0 63.5 13.5t26 39.5t5.5 75v335q0 46 -6.5 69.5t-26.5 35t-63 11.5h-35v-579h36zM607 98l163 370h-149v110h307v-90l-164 -377h165v-111h-322v98z
M604 822h108l53 -111l53 111h108l-88 -183h-147z" />
    <glyph glyph-name="uni01C6" unicode="&#x1c6;" horiz-adv-x="872" 
d="M42 181v212q0 89 34 142t102 53q57 0 110 -46v268h151v-810h-151v43q-53 -53 -110 -53q-136 0 -136 191zM288 107v368q-26 15 -48 15q-24 0 -35 -20.5t-11 -54.5v-245q0 -80 46 -80q22 0 48 17zM524 98l163 370h-149v110h307v-90l-164 -377h165v-111h-322v98zM521 822
h108l53 -111l53 111h108l-88 -183h-147z" />
    <glyph glyph-name="uni01C7" unicode="&#x1c7;" horiz-adv-x="772" 
d="M61 810h164v-698h191v-112h-355v810zM445 95q41 0 62 7t30 26t9 58v624h165v-631q0 -69 -16.5 -112.5t-57.5 -65t-112 -21.5h-80v115z" />
    <glyph glyph-name="uni01C8" unicode="&#x1c8;" horiz-adv-x="700" 
d="M61 810h164v-698h191v-112h-355v810zM498 786h152v-113h-152v113zM422 -161v108q27 -3 29 -3q47 0 47 53v581h151v-599q0 -70 -38 -111t-109 -41q-44 0 -80 12z" />
    <glyph glyph-name="uni01C9" unicode="&#x1c9;" horiz-adv-x="531" 
d="M59 810h150v-810h-150v810zM329 786h152v-113h-152v113zM253 -161v108q27 -3 29 -3q47 0 47 53v581h151v-599q0 -70 -38 -111t-109 -41q-44 0 -80 12z" />
    <glyph glyph-name="uni01CA" unicode="&#x1ca;" horiz-adv-x="893" 
d="M61 810h115l180 -421v421h137v-810h-111l-180 448v-448h-141v810zM566 95q41 0 62 7t30 26t9 58v624h165v-631q0 -69 -16.5 -112.5t-57.5 -65t-112 -21.5h-80v115z" />
    <glyph glyph-name="uni01CB" unicode="&#x1cb;" horiz-adv-x="821" 
d="M61 810h115l180 -421v421h137v-810h-111l-180 448v-448h-141v810zM619 786h152v-113h-152v113zM543 -161v108q27 -3 29 -3q47 0 47 53v581h151v-599q0 -70 -38 -111t-109 -41q-44 0 -80 12z" />
    <glyph glyph-name="uni01CC" unicode="&#x1cc;" horiz-adv-x="760" 
d="M52 578h150v-58q70 68 140 68q50 0 76.5 -37t26.5 -95v-456h-151v432q0 24 -8 35.5t-27 11.5q-23 0 -57 -24v-455h-150v578zM558 786h152v-113h-152v113zM482 -161v108q27 -3 29 -3q47 0 47 53v581h151v-599q0 -70 -38 -111t-109 -41q-44 0 -80 12z" />
    <glyph glyph-name="uni01CD" unicode="&#x1cd;" horiz-adv-x="538" 
d="M178 810h183l156 -810h-152l-30 178h-128l-31 -178h-155zM319 280l-49 326l-48 -326h97zM109 1054h108l53 -111l53 111h108l-88 -183h-147z" />
    <glyph glyph-name="uni01CE" unicode="&#x1ce;" horiz-adv-x="466" 
d="M98 10q-30 20 -45.5 52.5t-15.5 67.5q0 67 33 110t79.5 67t123.5 52v54q0 31 -8.5 47t-30.5 16t-31 -14t-11 -40l-3 -40l-142 6q4 103 53 151.5t147 48.5q85 0 128 -47t43 -129v-269q0 -68 10 -143h-135q-4 29 -13 83q-12 -40 -40.5 -66.5t-71.5 -26.5q-40 0 -70 20z
M250.5 107q13.5 10 22.5 23v159q-47 -27 -72 -56t-25 -71q0 -31 12 -48t34 -17q15 0 28.5 10zM85 822h108l53 -111l53 111h108l-88 -183h-147z" />
    <glyph glyph-name="uni01D3" unicode="&#x1d3;" horiz-adv-x="578" 
d="M148 19.5q-51 30.5 -72 88.5t-21 148v554h162v-577q0 -58 14 -91t58 -33t58 33t14 91v577h163v-554q0 -90 -21 -148t-72.5 -88.5t-141.5 -30.5t-141 30.5zM129 1054h108l53 -111l53 111h108l-88 -183h-147z" />
    <glyph glyph-name="uni01D4" unicode="&#x1d4;" horiz-adv-x="490" 
d="M72.5 27q-26.5 37 -26.5 95v456h151v-435q0 -24 8.5 -36t28.5 -12q21 0 53 22v461h151v-578h-151v54q-69 -64 -138 -64q-50 0 -76.5 37zM84 822h108l53 -111l53 111h108l-88 -183h-147z" />
    <glyph glyph-name="uni01E4" unicode="&#x1e4;" horiz-adv-x="572" 
d="M575 193h-55v-193h-108l-11 72q-37 -84 -133 -84q-118 0 -168.5 72.5t-50.5 207.5v271q0 138 53.5 209.5t183.5 71.5q125 0 178 -61t53 -176v-47h-160v57q0 56 -12.5 82.5t-56.5 26.5q-45 0 -58 -30t-13 -87v-360q0 -57 16 -87.5t60 -30.5q36 0 53.5 22.5t22.5 63.5h-50
v84h52v39h-79v100h228v-139h55v-84z" />
    <glyph glyph-name="uni01E5" unicode="&#x1e5;" horiz-adv-x="487" 
d="M505 -55h-37q-8 -70 -64.5 -105t-172.5 -35q-97 0 -152 30t-55 94q0 11 1 16h-35v51h56q22 31 65 50q-35 10 -54.5 30t-19.5 44q0 32 15.5 57t48.5 54q-29 25 -43.5 62.5t-14.5 91.5q0 99 50.5 151t146.5 52q89 0 133 -50q10 17 29 33t43 27l20 10l36 -76
q-15 -5 -45 -17.5t-47 -22.5q10 -21 15.5 -50t5.5 -58q0 -95 -47.5 -147t-142.5 -52q-50 0 -89 14q-16 -16 -16 -32q0 -10 11.5 -14.5t41.5 -7.5l139 -15q66 -7 100.5 -40t40.5 -94h37v-51zM199.5 471q-10.5 -25 -10.5 -86q0 -58 10.5 -83t40.5 -25t40 23.5t10 84.5
q0 62 -10 86.5t-40 24.5t-40.5 -25zM141 -4h216q-7 12 -25.5 18t-53.5 9l-104 11q-26 -24 -33 -38zM323 -81.5q26 8.5 35 26.5h-219q8 -18 34.5 -26.5t76.5 -8.5q47 0 73 8.5z" />
    <glyph glyph-name="Gcaron" unicode="&#x1e6;" horiz-adv-x="572" 
d="M99.5 60.5q-50.5 72.5 -50.5 207.5v271q0 138 53.5 209.5t183.5 71.5q125 0 178 -61t53 -176v-47h-160v57q0 56 -12.5 82.5t-56.5 26.5q-45 0 -58 -30t-13 -87v-360q0 -57 16 -87.5t60 -30.5q43 0 60.5 32.5t17.5 90.5v86h-79v100h228v-416h-108l-11 72q-37 -84 -133 -84
q-118 0 -168.5 72.5zM125 1054h108l53 -111l53 111h108l-88 -183h-147z" />
    <glyph glyph-name="gcaron" unicode="&#x1e7;" horiz-adv-x="487" 
d="M79.5 -166q-55.5 29 -55.5 86q0 76 89 115q-76 20 -76 85q0 32 15.5 57t48.5 54q-29 25 -43.5 62.5t-14.5 91.5q0 99 50.5 151t146.5 52q89 0 133 -50q10 17 29 33t43 27l20 10l36 -76q-15 -5 -45 -17.5t-47 -22.5q10 -21 15.5 -50t5.5 -58q0 -95 -47.5 -147t-142.5 -52
q-50 0 -89 14q-16 -20 -16 -37q0 -12 12 -19t41 -10l139 -15q142 -16 142 -149q0 -83 -56.5 -123.5t-181.5 -40.5q-96 0 -151.5 29zM280 300.5q10 23.5 10 84.5q0 62 -10 86.5t-40 24.5t-40.5 -25t-10.5 -86q0 -58 10.5 -83t40.5 -25t40 23.5zM335.5 -74.5
q27.5 10.5 27.5 37.5q0 23 -18 33.5t-67 14.5l-104 11q-17 -15 -26.5 -28.5t-9.5 -29.5q0 -25 26 -37t86 -12q58 0 85.5 10.5zM83 822h108l53 -111l53 111h108l-88 -183h-147z" />
    <glyph glyph-name="uni01E8" unicode="&#x1e8;" horiz-adv-x="552" 
d="M61 810h164v-342l147 342h160l-152 -364l164 -446h-167l-125 362l-27 -44v-318h-164v810zM125 1054h108l53 -111l53 111h108l-88 -183h-147z" />
    <glyph glyph-name="uni01E9" unicode="&#x1e9;" horiz-adv-x="517" 
d="M52 810h150v-456l145 224h168l-150 -235l148 -343h-163l-103 280l-45 -60v-220h-150v810zM175 997h108l53 -111l53 111h108l-88 -183h-147z" />
    <glyph glyph-name="uni01EA" unicode="&#x1ea;" horiz-adv-x="576" 
d="M104 56.5q-55 67.5 -55 198.5v302q0 131 55 197t184 66q128 0 183.5 -66.5t55.5 -196.5v-303q0 -130 -55.5 -197.5t-183.5 -67.5q-129 0 -184 67.5zM344.5 135.5q14.5 28.5 14.5 78.5v383q0 50 -14.5 77.5t-56.5 27.5t-56.5 -27.5t-14.5 -77.5v-383q0 -51 14 -79t57 -28
q42 0 56.5 28.5zM241 -232.5q-44 21.5 -44 82.5q0 39 25.5 82t59.5 68h69q-46 -68 -46 -123q0 -56 67 -56q14 0 30 2l-16 -74q-14 -3 -34 -3q-67 0 -111 21.5z" />
    <glyph glyph-name="uni01EB" unicode="&#x1eb;" 
d="M90.5 40q-50.5 50 -50.5 145v208q0 95 50.5 145t144.5 50t144.5 -50t50.5 -145v-208q0 -95 -50.5 -145t-144.5 -50t-144.5 50zM271.5 112.5q9.5 20.5 9.5 61.5v229q0 41 -9.5 62t-35.5 21q-27 0 -37 -21.5t-10 -61.5v-229q0 -40 10 -61t37 -21q26 0 35.5 20.5z
M198 -229.5q-44 21.5 -44 82.5q0 39 25.5 82t59.5 68h69q-46 -68 -46 -123q0 -56 67 -56q14 0 30 2l-16 -74q-14 -3 -34 -3q-67 0 -111 21.5z" />
    <glyph glyph-name="uni01EE" unicode="&#x1ee;" horiz-adv-x="493" 
d="M415.5 427.5q44.5 -66.5 44.5 -191.5q0 -117 -52 -183.5t-165 -66.5q-116 0 -167 64t-51 181v28h154v-27q0 -68 14 -97.5t51 -29.5t50 30t13 98q0 64 -10 100t-36 53t-75 17h-87v84l156 210h-208v113h379v-90l-170 -226h1q114 0 158.5 -66.5zM86 1054h108l53 -111l53 111
h108l-88 -183h-147z" />
    <glyph glyph-name="uni01EF" unicode="&#x1ef;" horiz-adv-x="479" 
d="M408.5 228q43.5 -62 43.5 -181q0 -117 -51.5 -183.5t-164.5 -66.5q-212 0 -212 245v28h148v-26q0 -75 14 -106.5t52 -31.5q37 0 49.5 32t12.5 106q0 64 -9 99.5t-33 52.5t-70 17h-72v89l130 166h-188v110h349v-90l-151 -192q109 -6 152.5 -68zM79 822h108l53 -111l53 111
h108l-88 -183h-147z" />
    <glyph glyph-name="uni01F1" unicode="&#x1f1;" horiz-adv-x="996" 
d="M61 810h198q102 0 159.5 -26.5t82 -81.5t24.5 -146v-295q0 -93 -24 -149.5t-81 -84t-157 -27.5h-202v810zM261 115q43 0 63.5 13.5t26 39.5t5.5 75v335q0 46 -6.5 69.5t-26.5 35t-63 11.5h-35v-579h36zM598 102l207 595h-197v113h360v-90l-211 -608h213v-112h-372v102z
" />
    <glyph glyph-name="uni01F2" unicode="&#x1f2;" horiz-adv-x="955" 
d="M61 810h198q102 0 159.5 -26.5t82 -81.5t24.5 -146v-295q0 -93 -24 -149.5t-81 -84t-157 -27.5h-202v810zM261 115q43 0 63.5 13.5t26 39.5t5.5 75v335q0 46 -6.5 69.5t-26.5 35t-63 11.5h-35v-579h36zM607 98l163 370h-149v110h307v-90l-164 -377h165v-111h-322v98z" />
    <glyph glyph-name="uni01F3" unicode="&#x1f3;" horiz-adv-x="872" 
d="M42 181v212q0 89 34 142t102 53q57 0 110 -46v268h151v-810h-151v43q-53 -53 -110 -53q-136 0 -136 191zM288 107v368q-26 15 -48 15q-24 0 -35 -20.5t-11 -54.5v-245q0 -80 46 -80q22 0 48 17zM524 98l163 370h-149v110h307v-90l-164 -377h165v-111h-322v98z" />
    <glyph glyph-name="uni01F4" unicode="&#x1f4;" horiz-adv-x="572" 
d="M99.5 60.5q-50.5 72.5 -50.5 207.5v271q0 138 53.5 209.5t183.5 71.5q125 0 178 -61t53 -176v-47h-160v57q0 56 -12.5 82.5t-56.5 26.5q-45 0 -58 -30t-13 -87v-360q0 -57 16 -87.5t60 -30.5q43 0 60.5 32.5t17.5 90.5v86h-79v100h228v-416h-108l-11 72q-37 -84 -133 -84
q-118 0 -168.5 72.5zM299 1071h154l-123 -201h-92z" />
    <glyph glyph-name="uni01F5" unicode="&#x1f5;" horiz-adv-x="487" 
d="M79.5 -166q-55.5 29 -55.5 86q0 76 89 115q-76 20 -76 85q0 32 15.5 57t48.5 54q-29 25 -43.5 62.5t-14.5 91.5q0 99 50.5 151t146.5 52q89 0 133 -50q10 17 29 33t43 27l20 10l36 -76q-15 -5 -45 -17.5t-47 -22.5q10 -21 15.5 -50t5.5 -58q0 -95 -47.5 -147t-142.5 -52
q-50 0 -89 14q-16 -20 -16 -37q0 -12 12 -19t41 -10l139 -15q142 -16 142 -149q0 -83 -56.5 -123.5t-181.5 -40.5q-96 0 -151.5 29zM280 300.5q10 23.5 10 84.5q0 62 -10 86.5t-40 24.5t-40.5 -25t-10.5 -86q0 -58 10.5 -83t40.5 -25t40 23.5zM335.5 -74.5
q27.5 10.5 27.5 37.5q0 23 -18 33.5t-67 14.5l-104 11q-17 -15 -26.5 -28.5t-9.5 -29.5q0 -25 26 -37t86 -12q58 0 85.5 10.5zM257 839h154l-123 -201h-92z" />
    <glyph glyph-name="Aringacute" unicode="&#x1fa;" horiz-adv-x="538" 
d="M178 810h183l156 -810h-152l-30 178h-128l-31 -178h-155zM319 280l-49 326l-48 -326h97zM186.5 877q-32.5 29 -32.5 81t32.5 81t82.5 29t83.5 -29.5t33.5 -80.5q0 -52 -33 -81t-84 -29q-50 0 -82.5 29zM307.5 920q13.5 15 13.5 38q0 24 -13.5 39t-38.5 15
q-24 0 -37.5 -15t-13.5 -39q0 -23 13.5 -38t37.5 -15q25 0 38.5 15zM283 1314h154l-123 -201h-92z" />
    <glyph glyph-name="aringacute" unicode="&#x1fb;" horiz-adv-x="466" 
d="M98 10q-30 20 -45.5 52.5t-15.5 67.5q0 67 33 110t79.5 67t123.5 52v54q0 31 -8.5 47t-30.5 16t-31 -14t-11 -40l-3 -40l-142 6q4 103 53 151.5t147 48.5q85 0 128 -47t43 -129v-269q0 -68 10 -143h-135q-4 29 -13 83q-12 -40 -40.5 -66.5t-71.5 -26.5q-40 0 -70 20z
M250.5 107q13.5 10 22.5 23v159q-47 -27 -72 -56t-25 -71q0 -31 12 -48t34 -17q15 0 28.5 10zM162.5 645q-32.5 29 -32.5 81t32.5 81t82.5 29t83.5 -29.5t33.5 -80.5q0 -52 -33 -81t-84 -29q-50 0 -82.5 29zM283.5 688q13.5 15 13.5 38q0 24 -13.5 39t-38.5 15
q-24 0 -37.5 -15t-13.5 -39q0 -23 13.5 -38t37.5 -15q25 0 38.5 15zM259 1082h154l-123 -201h-92z" />
    <glyph glyph-name="AEacute" unicode="&#x1fc;" horiz-adv-x="692" 
d="M329 800h342v-113h-178v-211h127v-115h-127v-248h178v-113h-321v177h-134l-73 -177h-164zM350 282v267l-100 -267h100zM435 1071h154l-123 -201h-92z" />
    <glyph glyph-name="aeacute" unicode="&#x1fd;" horiz-adv-x="673" 
d="M488 202h141v-42q0 -82 -41.5 -126.5t-120.5 -44.5q-51 0 -89.5 26.5t-47.5 73.5q-15 -47 -54 -73.5t-89 -26.5q-69 0 -109.5 38.5t-40.5 103.5q0 78 45.5 120.5t123.5 61.5l64 15v80q0 35 -9.5 51t-30.5 16q-23 0 -33.5 -20t-10.5 -67l-147 4q1 95 45.5 145.5
t133.5 50.5q46 0 77.5 -17.5t44.5 -45.5q16 28 53.5 45.5t84.5 17.5q76 0 115 -37.5t39 -100.5q0 -69 -39 -103t-111 -50l-67 -15v-117q0 -34 7.5 -50.5t29.5 -16.5t29 17t7 51v36zM414 352l24 6q35 7 51 22.5t16 45.5q0 22 -11 36t-32 14q-26 0 -37 -16.5t-11 -49.5v-58z
M270 259l-34 -14q-33 -13 -48 -35t-15 -54q0 -28 12 -45.5t36 -17.5q49 0 49 69v97zM350 839h154l-123 -201h-92z" />
    <glyph glyph-name="Oslashacute" unicode="&#x1fe;" horiz-adv-x="565" 
d="M505 697q22 -57 22 -140v-303q0 -130 -55.5 -197.5t-183.5 -67.5q-74 0 -125 23l-35 -99l-39 15l38 107q-41 33 -59.5 87.5t-18.5 132.5v302q0 131 55 197t184 66q63 0 109 -17l28 80l40 -14l-30 -84q48 -31 70 -88zM217 292l132 374q-16 36 -61 36q-42 0 -56.5 -27.5
t-14.5 -77.5v-305zM344.5 135.5q14.5 28.5 14.5 78.5v354l-140 -396q5 -31 20.5 -48t48.5 -17q42 0 56.5 28.5zM296 1071h154l-123 -201h-92z" />
    <glyph glyph-name="oslashacute" unicode="&#x1ff;" horiz-adv-x="466" 
d="M430 393v-208q0 -95 -50.5 -145t-144.5 -50q-53 0 -95 17l-38 -97l-36 15l40 102q-66 49 -66 158v208q0 95 50.5 145t144.5 50q47 0 86 -14l38 98l39 -15l-40 -101q72 -49 72 -163zM189 239l86 218q-10 29 -39 29q-27 0 -37 -21.5t-10 -61.5v-164zM271.5 112.5
q9.5 20.5 9.5 61.5v188l-89 -226q7 -44 44 -44q26 0 35.5 20.5zM246 839h154l-123 -201h-92z" />
    <glyph glyph-name="uni0200" unicode="&#x200;" horiz-adv-x="538" 
d="M178 810h183l156 -810h-152l-30 178h-128l-31 -178h-155zM319 280l-49 326l-48 -326h97zM52 1069h121l63 -198h-81zM232 1069h112l55 -198h-79z" />
    <glyph glyph-name="uni0201" unicode="&#x201;" horiz-adv-x="466" 
d="M98 10q-30 20 -45.5 52.5t-15.5 67.5q0 67 33 110t79.5 67t123.5 52v54q0 31 -8.5 47t-30.5 16t-31 -14t-11 -40l-3 -40l-142 6q4 103 53 151.5t147 48.5q85 0 128 -47t43 -129v-269q0 -68 10 -143h-135q-4 29 -13 83q-12 -40 -40.5 -66.5t-71.5 -26.5q-40 0 -70 20z
M250.5 107q13.5 10 22.5 23v159q-47 -27 -72 -56t-25 -71q0 -31 12 -48t34 -17q15 0 28.5 10zM28 837h121l63 -198h-81zM208 837h112l55 -198h-79z" />
    <glyph glyph-name="uni0202" unicode="&#x202;" horiz-adv-x="538" 
d="M178 810h183l156 -810h-152l-30 178h-128l-31 -178h-155zM319 280l-49 326l-48 -326h97zM158 999.5q39 41.5 112 41.5q74 0 113 -41.5t39 -115.5h-86q0 41 -15 59.5t-51 18.5t-51 -18t-15 -60h-86q1 74 40 115.5z" />
    <glyph glyph-name="uni0203" unicode="&#x203;" horiz-adv-x="466" 
d="M98 10q-30 20 -45.5 52.5t-15.5 67.5q0 67 33 110t79.5 67t123.5 52v54q0 31 -8.5 47t-30.5 16t-31 -14t-11 -40l-3 -40l-142 6q4 103 53 151.5t147 48.5q85 0 128 -47t43 -129v-269q0 -68 10 -143h-135q-4 29 -13 83q-12 -40 -40.5 -66.5t-71.5 -26.5q-40 0 -70 20z
M250.5 107q13.5 10 22.5 23v159q-47 -27 -72 -56t-25 -71q0 -31 12 -48t34 -17q15 0 28.5 10zM134 767.5q39 41.5 112 41.5q74 0 113 -41.5t39 -115.5h-86q0 41 -15 59.5t-51 18.5t-51 -18t-15 -60h-86q1 74 40 115.5z" />
    <glyph glyph-name="uni0204" unicode="&#x204;" horiz-adv-x="439" 
d="M61 810h353v-114h-189v-215h146v-115h-146v-254h191v-112h-355v810zM22 1069h121l63 -198h-81zM202 1069h112l55 -198h-79z" />
    <glyph glyph-name="uni0205" unicode="&#x205;" horiz-adv-x="459" 
d="M89.5 42q-49.5 52 -49.5 150v194q0 98 50 150t144 52q97 0 142 -52t45 -154v-101h-231v-112q0 -37 11.5 -54t33.5 -17q45 0 45 65v56h140v-50q0 -87 -48 -133t-138 -46q-95 0 -144.5 52zM280 353v56q0 38 -11 54.5t-35 16.5q-23 0 -33.5 -18t-10.5 -64v-45h90zM14 837
h121l63 -198h-81zM194 837h112l55 -198h-79z" />
    <glyph glyph-name="uni0206" unicode="&#x206;" horiz-adv-x="439" 
d="M61 810h353v-114h-189v-215h146v-115h-146v-254h191v-112h-355v810zM128 999.5q39 41.5 112 41.5q74 0 113 -41.5t39 -115.5h-86q0 41 -15 59.5t-51 18.5t-51 -18t-15 -60h-86q1 74 40 115.5z" />
    <glyph glyph-name="uni0207" unicode="&#x207;" horiz-adv-x="459" 
d="M89.5 42q-49.5 52 -49.5 150v194q0 98 50 150t144 52q97 0 142 -52t45 -154v-101h-231v-112q0 -37 11.5 -54t33.5 -17q45 0 45 65v56h140v-50q0 -87 -48 -133t-138 -46q-95 0 -144.5 52zM280 353v56q0 38 -11 54.5t-35 16.5q-23 0 -33.5 -18t-10.5 -64v-45h90zM120 767.5
q39 41.5 112 41.5q74 0 113 -41.5t39 -115.5h-86q0 41 -15 59.5t-51 18.5t-51 -18t-15 -60h-86q1 74 40 115.5z" />
    <glyph glyph-name="uni0208" unicode="&#x208;" horiz-adv-x="289" 
d="M63 810h164v-810h-164v810zM-73 1069h121l63 -198h-81zM107 1069h112l55 -198h-79z" />
    <glyph glyph-name="uni0209" unicode="&#x209;" horiz-adv-x="268" 
d="M60 578h151v-578h-151v578zM-82 837h121l63 -198h-81zM98 837h112l55 -198h-79z" />
    <glyph glyph-name="uni020A" unicode="&#x20a;" horiz-adv-x="289" 
d="M63 810h164v-810h-164v810zM33 999.5q39 41.5 112 41.5q74 0 113 -41.5t39 -115.5h-86q0 41 -15 59.5t-51 18.5t-51 -18t-15 -60h-86q1 74 40 115.5z" />
    <glyph glyph-name="uni020B" unicode="&#x20b;" horiz-adv-x="268" 
d="M60 578h151v-578h-151v578zM24 767.5q39 41.5 112 41.5q74 0 113 -41.5t39 -115.5h-86q0 41 -15 59.5t-51 18.5t-51 -18t-15 -60h-86q1 74 40 115.5z" />
    <glyph glyph-name="uni020C" unicode="&#x20c;" horiz-adv-x="576" 
d="M104 56.5q-55 67.5 -55 198.5v302q0 131 55 197t184 66q128 0 183.5 -66.5t55.5 -196.5v-303q0 -130 -55.5 -197.5t-183.5 -67.5q-129 0 -184 67.5zM344.5 135.5q14.5 28.5 14.5 78.5v383q0 50 -14.5 77.5t-56.5 27.5t-56.5 -27.5t-14.5 -77.5v-383q0 -51 14 -79t57 -28
q42 0 56.5 28.5zM70 1069h121l63 -198h-81zM250 1069h112l55 -198h-79z" />
    <glyph glyph-name="uni020D" unicode="&#x20d;" 
d="M90.5 40q-50.5 50 -50.5 145v208q0 95 50.5 145t144.5 50t144.5 -50t50.5 -145v-208q0 -95 -50.5 -145t-144.5 -50t-144.5 50zM271.5 112.5q9.5 20.5 9.5 61.5v229q0 41 -9.5 62t-35.5 21q-27 0 -37 -21.5t-10 -61.5v-229q0 -40 10 -61t37 -21q26 0 35.5 20.5zM17 837
h121l63 -198h-81zM197 837h112l55 -198h-79z" />
    <glyph glyph-name="uni020E" unicode="&#x20e;" horiz-adv-x="576" 
d="M104 56.5q-55 67.5 -55 198.5v302q0 131 55 197t184 66q128 0 183.5 -66.5t55.5 -196.5v-303q0 -130 -55.5 -197.5t-183.5 -67.5q-129 0 -184 67.5zM344.5 135.5q14.5 28.5 14.5 78.5v383q0 50 -14.5 77.5t-56.5 27.5t-56.5 -27.5t-14.5 -77.5v-383q0 -51 14 -79t57 -28
q42 0 56.5 28.5zM176 999.5q39 41.5 112 41.5q74 0 113 -41.5t39 -115.5h-86q0 41 -15 59.5t-51 18.5t-51 -18t-15 -60h-86q1 74 40 115.5z" />
    <glyph glyph-name="uni020F" unicode="&#x20f;" 
d="M90.5 40q-50.5 50 -50.5 145v208q0 95 50.5 145t144.5 50t144.5 -50t50.5 -145v-208q0 -95 -50.5 -145t-144.5 -50t-144.5 50zM271.5 112.5q9.5 20.5 9.5 61.5v229q0 41 -9.5 62t-35.5 21q-27 0 -37 -21.5t-10 -61.5v-229q0 -40 10 -61t37 -21q26 0 35.5 20.5zM123 767.5
q39 41.5 112 41.5q74 0 113 -41.5t39 -115.5h-86q0 41 -15 59.5t-51 18.5t-51 -18t-15 -60h-86q1 74 40 115.5z" />
    <glyph glyph-name="uni0210" unicode="&#x210;" horiz-adv-x="583" 
d="M61 810h210q131 0 197 -48t66 -166q0 -79 -22 -127.5t-78 -73.5l112 -395h-169l-92 367h-60v-367h-164v810zM274 465q58 0 81.5 28.5t23.5 89.5q0 60 -21 88t-76 28h-57v-234h49zM74 1069h121l63 -198h-81zM254 1069h112l55 -198h-79z" />
    <glyph glyph-name="uni0211" unicode="&#x211;" horiz-adv-x="370" 
d="M54 578h151v-93q30 52 58.5 76t66.5 24q9 0 23 -2v-154q-26 12 -54 12q-55 0 -94 -56v-385h-151v578zM-23 837h121l63 -198h-81zM157 837h112l55 -198h-79z" />
    <glyph glyph-name="uni0212" unicode="&#x212;" horiz-adv-x="583" 
d="M61 810h210q131 0 197 -48t66 -166q0 -79 -22 -127.5t-78 -73.5l112 -395h-169l-92 367h-60v-367h-164v810zM274 465q58 0 81.5 28.5t23.5 89.5q0 60 -21 88t-76 28h-57v-234h49zM180 999.5q39 41.5 112 41.5q74 0 113 -41.5t39 -115.5h-86q0 41 -15 59.5t-51 18.5
t-51 -18t-15 -60h-86q1 74 40 115.5z" />
    <glyph glyph-name="uni0213" unicode="&#x213;" horiz-adv-x="370" 
d="M54 578h151v-93q30 52 58.5 76t66.5 24q9 0 23 -2v-154q-26 12 -54 12q-55 0 -94 -56v-385h-151v578zM83 767.5q39 41.5 112 41.5q74 0 113 -41.5t39 -115.5h-86q0 41 -15 59.5t-51 18.5t-51 -18t-15 -60h-86q1 74 40 115.5z" />
    <glyph glyph-name="uni0214" unicode="&#x214;" horiz-adv-x="578" 
d="M148 19.5q-51 30.5 -72 88.5t-21 148v554h162v-577q0 -58 14 -91t58 -33t58 33t14 91v577h163v-554q0 -90 -21 -148t-72.5 -88.5t-141.5 -30.5t-141 30.5zM72 1069h121l63 -198h-81zM252 1069h112l55 -198h-79z" />
    <glyph glyph-name="uni0215" unicode="&#x215;" horiz-adv-x="490" 
d="M72.5 27q-26.5 37 -26.5 95v456h151v-435q0 -24 8.5 -36t28.5 -12q21 0 53 22v461h151v-578h-151v54q-69 -64 -138 -64q-50 0 -76.5 37zM27 837h121l63 -198h-81zM207 837h112l55 -198h-79z" />
    <glyph glyph-name="uni0216" unicode="&#x216;" horiz-adv-x="578" 
d="M148 19.5q-51 30.5 -72 88.5t-21 148v554h162v-577q0 -58 14 -91t58 -33t58 33t14 91v577h163v-554q0 -90 -21 -148t-72.5 -88.5t-141.5 -30.5t-141 30.5zM178 999.5q39 41.5 112 41.5q74 0 113 -41.5t39 -115.5h-86q0 41 -15 59.5t-51 18.5t-51 -18t-15 -60h-86
q1 74 40 115.5z" />
    <glyph glyph-name="uni0217" unicode="&#x217;" horiz-adv-x="490" 
d="M72.5 27q-26.5 37 -26.5 95v456h151v-435q0 -24 8.5 -36t28.5 -12q21 0 53 22v461h151v-578h-151v54q-69 -64 -138 -64q-50 0 -76.5 37zM133 767.5q39 41.5 112 41.5q74 0 113 -41.5t39 -115.5h-86q0 41 -15 59.5t-51 18.5t-51 -18t-15 -60h-86q1 74 40 115.5z" />
    <glyph glyph-name="Scommaaccent" unicode="&#x218;" horiz-adv-x="505" 
d="M102 50.5q-56 61.5 -61 190.5l142 24q2 -77 21.5 -113.5t58.5 -36.5q29 0 42 18.5t13 47.5q0 48 -21.5 81.5t-67.5 73.5l-84 73q-50 42 -76.5 90t-26.5 115q0 99 58.5 152.5t161.5 53.5q110 0 153 -63.5t49 -161.5l-143 -21q-2 64 -14.5 94.5t-49.5 30.5q-27 0 -42 -20.5
t-15 -48.5q0 -40 17.5 -67.5t55.5 -60.5l82 -72q58 -51 91 -107.5t33 -132.5q0 -58 -26 -103.5t-73.5 -71.5t-109.5 -26q-112 0 -168 61.5zM192 -287q31 5 49 22.5t18 54.5h-78v143h144v-125q-1 -72 -28.5 -110t-89.5 -39z" />
    <glyph glyph-name="scommaaccent" unicode="&#x219;" horiz-adv-x="413" 
d="M96 26.5q-49 36.5 -75 112.5l106 44q30 -89 85 -89q21 0 31.5 9.5t10.5 26.5q0 23 -14.5 41t-57.5 55l-54 46q-48 41 -71 76t-23 84q0 46 23 81.5t62.5 55t86.5 19.5q70 0 115.5 -39.5t62.5 -110.5l-98 -44q-9 36 -29 61.5t-47 25.5q-18 0 -29 -10.5t-11 -27.5t17 -36.5
t53 -50.5l54 -48q47 -40 73.5 -77t26.5 -86q0 -48 -23.5 -83t-63.5 -53.5t-87 -18.5q-75 0 -124 36.5zM146 -287q31 5 49 22.5t18 54.5h-78v143h144v-125q-1 -72 -28.5 -110t-89.5 -39z" />
    <glyph glyph-name="uni021A" unicode="&#x21a;" horiz-adv-x="438" 
d="M137 688h-125v122h414v-122h-123v-688h-166v688zM158 -287q31 5 49 22.5t18 54.5h-78v143h144v-125q-1 -72 -28.5 -110t-89.5 -39z" />
    <glyph glyph-name="uni021B" unicode="&#x21b;" horiz-adv-x="344" 
d="M104.5 32q-33.5 39 -33.5 119v328h-57v99h57v174h153v-174h84v-99h-84v-313q0 -51 51 -51q27 0 43 4v-118q-53 -8 -93 -8q-87 0 -120.5 39zM155 -287q31 5 49 22.5t18 54.5h-78v143h144v-125q-1 -72 -28.5 -110t-89.5 -39z" />
    <glyph glyph-name="uni021E" unicode="&#x21e;" horiz-adv-x="599" 
d="M63 810h165v-332h143v332h165v-810h-165v359h-143v-359h-165v810zM139 1054h108l53 -111l53 111h108l-88 -183h-147z" />
    <glyph glyph-name="uni021F" unicode="&#x21f;" horiz-adv-x="496" 
d="M53 810h151v-285q63 63 142 63q49 0 75 -37t26 -95v-456h-150v432q0 24 -8 35.5t-27 11.5q-25 0 -58 -25v-454h-151v810zM166 1012h108l53 -111l53 111h108l-88 -183h-147z" />
    <glyph glyph-name="uni022A" unicode="&#x22a;" horiz-adv-x="576" 
d="M104 56.5q-55 67.5 -55 198.5v302q0 131 55 197t184 66q128 0 183.5 -66.5t55.5 -196.5v-303q0 -130 -55.5 -197.5t-183.5 -67.5q-129 0 -184 67.5zM344.5 135.5q14.5 28.5 14.5 78.5v383q0 50 -14.5 77.5t-56.5 27.5t-56.5 -27.5t-14.5 -77.5v-383q0 -51 14 -79t57 -28
q42 0 56.5 28.5zM121 1042h125v-140h-125v140zM329 1042h126v-140h-126v140zM159 1209h258v-75h-258v75z" />
    <glyph glyph-name="uni022B" unicode="&#x22b;" 
d="M90.5 40q-50.5 50 -50.5 145v208q0 95 50.5 145t144.5 50t144.5 -50t50.5 -145v-208q0 -95 -50.5 -145t-144.5 -50t-144.5 50zM271.5 112.5q9.5 20.5 9.5 61.5v229q0 41 -9.5 62t-35.5 21q-27 0 -37 -21.5t-10 -61.5v-229q0 -40 10 -61t37 -21q26 0 35.5 20.5zM68 810
h125v-140h-125v140zM276 810h126v-140h-126v140zM106 977h258v-75h-258v75z" />
    <glyph glyph-name="uni022C" unicode="&#x22c;" horiz-adv-x="576" 
d="M104 56.5q-55 67.5 -55 198.5v302q0 131 55 197t184 66q128 0 183.5 -66.5t55.5 -196.5v-303q0 -130 -55.5 -197.5t-183.5 -67.5q-129 0 -184 67.5zM344.5 135.5q14.5 28.5 14.5 78.5v383q0 50 -14.5 77.5t-56.5 27.5t-56.5 -27.5t-14.5 -77.5v-383q0 -51 14 -79t57 -28
q42 0 56.5 28.5zM333.5 913.5q-16.5 6.5 -37.5 19.5q-34 21 -54 21q-36 0 -36 -41h-74q-2 135 87 135q17 0 32.5 -6t34.5 -18q18 -10 31 -15.5t27 -5.5q31 0 31 39h69q0 -60 -15.5 -97.5t-60.5 -37.5q-18 0 -34.5 6.5zM159 1215h258v-75h-258v75z" />
    <glyph glyph-name="uni022D" unicode="&#x22d;" 
d="M90.5 40q-50.5 50 -50.5 145v208q0 95 50.5 145t144.5 50t144.5 -50t50.5 -145v-208q0 -95 -50.5 -145t-144.5 -50t-144.5 50zM271.5 112.5q9.5 20.5 9.5 61.5v229q0 41 -9.5 62t-35.5 21q-27 0 -37 -21.5t-10 -61.5v-229q0 -40 10 -61t37 -21q26 0 35.5 20.5z
M280.5 681.5q-16.5 6.5 -37.5 19.5q-34 21 -54 21q-36 0 -36 -41h-74q-2 135 87 135q17 0 32.5 -6t34.5 -18q18 -10 31 -15.5t27 -5.5q31 0 31 39h69q0 -60 -15.5 -97.5t-60.5 -37.5q-18 0 -34.5 6.5zM106 983h258v-75h-258v75z" />
    <glyph glyph-name="uni0230" unicode="&#x230;" horiz-adv-x="576" 
d="M104 56.5q-55 67.5 -55 198.5v302q0 131 55 197t184 66q128 0 183.5 -66.5t55.5 -196.5v-303q0 -130 -55.5 -197.5t-183.5 -67.5q-129 0 -184 67.5zM344.5 135.5q14.5 28.5 14.5 78.5v383q0 50 -14.5 77.5t-56.5 27.5t-56.5 -27.5t-14.5 -77.5v-383q0 -51 14 -79t57 -28
q42 0 56.5 28.5zM216 1034h144v-146h-144v146zM159 1201h258v-75h-258v75z" />
    <glyph glyph-name="uni0231" unicode="&#x231;" 
d="M90.5 40q-50.5 50 -50.5 145v208q0 95 50.5 145t144.5 50t144.5 -50t50.5 -145v-208q0 -95 -50.5 -145t-144.5 -50t-144.5 50zM271.5 112.5q9.5 20.5 9.5 61.5v229q0 41 -9.5 62t-35.5 21q-27 0 -37 -21.5t-10 -61.5v-229q0 -40 10 -61t37 -21q26 0 35.5 20.5zM163 802
h144v-146h-144v146zM106 969h258v-75h-258v75z" />
    <glyph glyph-name="uni0232" unicode="&#x232;" horiz-adv-x="491" 
d="M167 321l-158 489h155l87 -285l80 285h151l-156 -489v-321h-159v321zM117 977h258v-75h-258v75z" />
    <glyph glyph-name="uni0233" unicode="&#x233;" horiz-adv-x="436" 
d="M62 -57q51 0 73.5 10.5t22.5 37.5q0 13 -6.5 41t-14.5 58l-132 488h144l73 -355l60 355h144l-134 -596q-18 -80 -67 -112.5t-131 -32.5h-32v106zM89 745h258v-75h-258v75z" />
    <glyph glyph-name="uni0237" unicode="&#x237;" horiz-adv-x="267" 
d="M-11 -161v108q27 -3 29 -3q47 0 47 53v581h151v-599q0 -70 -38 -111t-109 -41q-44 0 -80 12z" />
    <glyph glyph-name="uni0259" unicode="&#x259;" horiz-adv-x="459" 
d="M84 40.5q-45 51.5 -45 153.5v101h231v112q0 73 -44 73q-23 0 -34.5 -15.5t-11.5 -49.5v-55h-141v49q0 87 48 133t138 46q95 0 144.5 -52t49.5 -149v-197q0 -98 -49.5 -149.5t-144.5 -51.5q-96 0 -141 51.5zM259.5 115q10.5 18 10.5 63v45h-90v-56q0 -38 11 -54t35 -16
q23 0 33.5 18z" />
    <glyph glyph-name="uni0292" horiz-adv-x="479" 
d="M408.5 228q43.5 -62 43.5 -181q0 -117 -51.5 -183.5t-164.5 -66.5q-212 0 -212 245v28h148v-26q0 -75 14 -106.5t52 -31.5q37 0 49.5 32t12.5 106q0 64 -9 99.5t-33 52.5t-70 17h-72v89l130 166h-188v110h349v-90l-151 -192q109 -6 152.5 -68z" />
    <glyph glyph-name="uni02BC" unicode="&#x2bc;" horiz-adv-x="378" 
d="M93 810h125l-51 -289h-74v289z" />
    <glyph glyph-name="circumflex" unicode="&#x2c6;" horiz-adv-x="392" 
d="M135 810h128l95 -194h-111l-48 125l-47 -125h-110z" />
    <glyph glyph-name="ring" unicode="&#x2da;" horiz-adv-x="318" 
d="M75.5 630q-32.5 29 -32.5 81t32.5 81t82.5 29t83 -29.5t33 -80.5q0 -52 -32.5 -81t-83.5 -29q-50 0 -82.5 29zM195.5 672.5q13.5 15.5 13.5 38.5t-13.5 38.5t-37.5 15.5t-37.5 -15.5t-13.5 -38.5t13.5 -38.5t37.5 -15.5t37.5 15.5z" />
    <glyph glyph-name="tilde" unicode="&#x2dc;" horiz-adv-x="424" 
d="M264.5 681q-16.5 6 -46.5 20q-42 21 -58 21q-27 1 -27 -41h-74q-1 64 17 98.5t66 35.5q24 2 47 -6t49 -22t36 -15q28 -4 28 38h69q0 -60 -15.5 -97.5t-58.5 -37.5q-16 0 -32.5 6z" />
    <glyph glyph-name="gravecomb" horiz-adv-x="0" 
d="M-167 839h155l60 -201h-91z" />
    <glyph glyph-name="acutecomb" horiz-adv-x="0" 
d="M13 839h154l-123 -201h-92z" />
    <glyph glyph-name="uni0302" horiz-adv-x="0" 
d="M-65 834h128l95 -188h-111l-48 120l-47 -120h-110z" />
    <glyph glyph-name="tildecomb" horiz-adv-x="0" 
d="M45.5 681.5q-16.5 6.5 -37.5 19.5q-34 21 -54 21q-36 0 -36 -41h-74q-2 135 87 135q17 0 32.5 -6t34.5 -18q18 -10 31 -15.5t27 -5.5q31 0 31 39h69q0 -60 -15.5 -97.5t-60.5 -37.5q-18 0 -34.5 6.5z" />
    <glyph glyph-name="uni0304" horiz-adv-x="0" 
d="M-129 745h258v-75h-258v75z" />
    <glyph glyph-name="uni0306" horiz-adv-x="0" 
d="M-111.5 682q-40.5 40 -40.5 112h86q0 -38 15 -55.5t51 -17.5q35 0 50.5 18t15.5 55h85q0 -72 -40 -112t-111 -40t-111.5 40z" />
    <glyph glyph-name="uni0307" horiz-adv-x="0" 
d="M-72 802h144v-146h-144v146z" />
    <glyph glyph-name="uni0308" horiz-adv-x="0" 
d="M-167 810h125v-140h-125v140zM41 810h126v-140h-126v140z" />
    <glyph glyph-name="hookabovecomb" horiz-adv-x="0" 
d="M-50 678q38 18 54 30.5t16 32.5q0 36 -58 36q-31 0 -59 -7v65q50 13 97 13q52 0 86 -24t34 -73q0 -47 -31.5 -74.5t-88.5 -47.5z" />
    <glyph glyph-name="uni030A" horiz-adv-x="0" 
d="M-83.5 645q-32.5 29 -32.5 81t32.5 81t82.5 29t83.5 -29.5t33.5 -80.5q0 -52 -33 -81t-84 -29q-50 0 -82.5 29zM37.5 688q13.5 15 13.5 38q0 24 -13.5 39t-38.5 15q-24 0 -37.5 -15t-13.5 -39q0 -23 13.5 -38t37.5 -15q25 0 38.5 15z" />
    <glyph glyph-name="uni030B" horiz-adv-x="0" 
d="M-70 841h123l-101 -206h-77zM104 841h134l-119 -206h-78z" />
    <glyph glyph-name="uni030C" horiz-adv-x="0" 
d="M-161 822h108l53 -111l53 111h108l-88 -183h-147z" />
    <glyph glyph-name="uni030F" horiz-adv-x="0" 
d="M-218 837h121l63 -198h-81zM-38 837h112l55 -198h-79z" />
    <glyph glyph-name="uni0311" horiz-adv-x="0" 
d="M-112 767.5q39 41.5 112 41.5q74 0 113 -41.5t39 -115.5h-86q0 41 -15 59.5t-51 18.5t-51 -18t-15 -60h-86q1 74 40 115.5z" />
    <glyph glyph-name="uni031B" horiz-adv-x="0" 
d="M-10 578h10q29 0 41.5 20t12.5 63h107q0 -72 -43 -109t-117 -37h-11v63z" />
    <glyph glyph-name="dotbelowcomb" horiz-adv-x="0" 
d="M-66 -68h132v-133h-132v133z" />
    <glyph glyph-name="uni0326" horiz-adv-x="0" 
d="M-61 -288q31 5 49 22.5t18 54.5h-78v143h144v-125q-1 -72 -28.5 -110t-89.5 -39z" />
    <glyph glyph-name="uni0327" horiz-adv-x="0" 
d="M-56 -257v67q30 -8 56 -8q28 0 45 8.5t17 27.5q0 25 -26 37.5t-65 15.5v109h58v-64q62 0 97 -25.5t35 -74.5q0 -52 -40.5 -78t-102.5 -26q-36 0 -74 11z" />
    <glyph glyph-name="uni0328" horiz-adv-x="0" 
d="M-75 -232.5q-44 21.5 -44 82.5q0 39 25.5 82t59.5 68h69q-46 -68 -46 -123q0 -56 67 -56q14 0 30 2l-16 -74q-14 -3 -34 -3q-67 0 -111 21.5z" />
    <glyph glyph-name="uni0400" unicode="&#x400;" horiz-adv-x="439" 
d="M61 810h353v-114h-189v-215h146v-115h-146v-254h191v-112h-355v810zM73 1071h155l60 -201h-91z" />
    <glyph glyph-name="uni0401" unicode="&#x401;" horiz-adv-x="439" 
d="M61 810h353v-114h-189v-215h146v-115h-146v-254h191v-112h-355v810zM73 1042h125v-140h-125v140zM281 1042h126v-140h-126v140z" />
    <glyph glyph-name="uni0402" unicode="&#x402;" horiz-adv-x="612" 
d="M111 694h-115v116h416v-116h-138v-250q27 21 60 32t67 11q45 0 84 -17.5t62.5 -51.5t23.5 -80v-137q0 -74 -20.5 -117.5t-66 -63.5t-122.5 -20h-34v97q49 0 70.5 25.5t21.5 78.5v122q0 26 -17 46.5t-50 20.5q-34 0 -79 -28v-362h-163v694z" />
    <glyph glyph-name="uni0403" unicode="&#x403;" horiz-adv-x="446" 
d="M63 810h360v-122h-195v-688h-165v810zM237 1071h154l-123 -201h-92z" />
    <glyph glyph-name="uni0404" unicode="&#x404;" horiz-adv-x="543" 
d="M103 58.5q-54 69.5 -54 200.5v290q0 134 53.5 202.5t183.5 68.5q124 0 175.5 -60.5t51.5 -173.5v-44h-160v51q0 36 -3.5 58t-18 36.5t-44.5 14.5q-45 0 -58 -29t-13 -85v-131h144v-92h-144v-145q0 -57 15 -85t56 -28q42 0 54 28.5t12 84.5v50h160v-38q0 -116 -51 -179.5
t-176 -63.5q-129 0 -183 69.5z" />
    <glyph glyph-name="uni0405" unicode="&#x405;" horiz-adv-x="505" 
d="M102 50.5q-56 61.5 -61 190.5l142 24q2 -77 21.5 -113.5t58.5 -36.5q29 0 42 18.5t13 47.5q0 48 -21.5 81.5t-67.5 73.5l-84 73q-50 42 -76.5 90t-26.5 115q0 99 58.5 152.5t161.5 53.5q110 0 153 -63.5t49 -161.5l-143 -21q-2 64 -14.5 94.5t-49.5 30.5q-27 0 -42 -20.5
t-15 -48.5q0 -40 17.5 -67.5t55.5 -60.5l82 -72q58 -51 91 -107.5t33 -132.5q0 -58 -26 -103.5t-73.5 -71.5t-109.5 -26q-112 0 -168 61.5z" />
    <glyph glyph-name="uni0406" unicode="&#x406;" horiz-adv-x="271" 
d="M57 810h164v-810h-164v810z" />
    <glyph glyph-name="uni0407" unicode="&#x407;" horiz-adv-x="271" 
d="M57 810h164v-810h-164v810zM-31 1042h125v-140h-125v140zM177 1042h126v-140h-126v140z" />
    <glyph glyph-name="uni0408" unicode="&#x408;" horiz-adv-x="320" 
d="M5 95q41 -1 62.5 6t30.5 26.5t9 58.5v624h164v-631q-1 -70 -17.5 -113t-57 -64.5t-111.5 -21.5h-80v115z" />
    <glyph glyph-name="uni0409" unicode="&#x409;" horiz-adv-x="877" 
d="M11 0v117q44 -2 67.5 12t36 53.5t18.5 121.5l33 506h414v-341h29q122 0 183 -55.5t61 -178.5q0 -92 -31.5 -143.5t-87 -71.5t-136.5 -20h-182v685h-101l-24 -384q-7 -116 -31 -181t-70 -93t-124 -27h-55zM599 110q55 0 78.5 28t23.5 95q0 60 -22.5 90.5t-81.5 30.5h-17
v-244h19z" />
    <glyph glyph-name="uni040A" unicode="&#x40a;" horiz-adv-x="823" 
d="M63 811h165v-334h130v334h165v-342h27q121 0 182 -56t61 -178q0 -92 -31.5 -143.5t-87 -71.5t-136.5 -20l-180 1v352h-130v-352h-165v810zM538 110q57 0 80 27.5t23 95.5q0 63 -22.5 92t-81.5 29h-14v-244h15z" />
    <glyph glyph-name="uni040B" unicode="&#x40b;" horiz-adv-x="620" 
d="M119 688h-111v122h393v-122h-117v-220q56 9 94 9q94 0 146 -50t52 -144v-283h-166v283q0 47 -13.5 69.5t-55.5 22.5q-26 0 -57 -6v-369h-165v688z" />
    <glyph glyph-name="uni040C" unicode="&#x40c;" horiz-adv-x="559" 
d="M63 810h165v-329h23l125 329h163l-150 -381l159 -429h-169l-128 362h-23v-362h-165v810zM293 1071h154l-123 -201h-92z" />
    <glyph glyph-name="uni040D" unicode="&#x40d;" horiz-adv-x="580" 
d="M63 810h132v-485l214 485h108v-810h-134v493l-216 -493h-104v810zM135 1071h155l60 -201h-91z" />
    <glyph glyph-name="uni040E" unicode="&#x40e;" horiz-adv-x="532" 
d="M53 -40l27 -1q63 0 93.5 20t30.5 65q0 15 -5 40l-178 726h154l69 -335l35 -226l27 226l59 335h156l-164 -748q-19 -89 -45.5 -133t-77.5 -62.5t-148 -18.5h-33v112zM154.5 914q-40.5 40 -40.5 112h86q0 -38 15 -55.5t51 -17.5q35 0 50.5 18t15.5 55h85q0 -72 -40 -112
t-111 -40t-111.5 40z" />
    <glyph glyph-name="uni040F" unicode="&#x40f;" horiz-adv-x="588" 
d="M230 0h-169v810h164v-686h137v686h165v-810h-164l-7 -169h-120z" />
    <glyph glyph-name="uni0410" unicode="&#x410;" horiz-adv-x="538" 
d="M178 810h183l156 -810h-152l-30 178h-128l-31 -178h-155zM319 280l-49 326l-48 -326h97z" />
    <glyph glyph-name="uni0411" unicode="&#x411;" horiz-adv-x="541" 
d="M63 810h391v-125h-226v-216h35q122 0 183 -56t61 -178q0 -92 -31.5 -143.5t-87 -71.5t-136.5 -20h-189v810zM253 110q55 0 78 28t23 95q0 60 -22 90.5t-81 30.5h-23v-244h25z" />
    <glyph glyph-name="uni0412" unicode="&#x412;" horiz-adv-x="575" 
d="M61 810h206q118 0 183 -45.5t65 -164.5q0 -72 -30.5 -113.5t-87.5 -51.5q71 -10 106.5 -60t35.5 -137q0 -238 -236 -238h-242v810zM267 483q60 0 82 27t22 86q0 54 -28 77.5t-87 23.5h-31v-214h42zM272 116q60 0 84.5 30t24.5 95q0 70 -25.5 100.5t-86.5 30.5h-44v-256
h47z" />
    <glyph glyph-name="uni0413" unicode="&#x413;" horiz-adv-x="446" 
d="M63 810h360v-122h-195v-688h-165v810z" />
    <glyph glyph-name="uni0414" unicode="&#x414;" horiz-adv-x="679" 
d="M16 118h27q38 15 65.5 58t46.5 130t28 230l20 274h369v-692h88v-287h-111l-9 169h-398l-10 -169h-116v287zM416 118v574h-86l-9 -176q-8 -141 -26 -220t-40 -112.5t-57 -65.5h218z" />
    <glyph glyph-name="uni0415" unicode="&#x415;" horiz-adv-x="439" 
d="M61 810h353v-114h-189v-215h146v-115h-146v-254h191v-112h-355v810z" />
    <glyph glyph-name="uni0416" unicode="&#x416;" horiz-adv-x="769" 
d="M179 409l-166 401h154l144 -381h8v381h132v-381h8l143 381h155l-167 -401l175 -409h-151l-155 396h-8v-396h-132v396h-9l-155 -396h-150z" />
    <glyph glyph-name="uni0417" unicode="&#x417;" horiz-adv-x="516" 
d="M94 50q-51 64 -51 181v28h154q0 -19 1 -30q1 -61 14.5 -87t50.5 -26t50 27.5t13 88.5q0 65 -22 97t-80 34h-42v105h39q60 1 82.5 31.5t22.5 95.5q0 51 -16.5 77t-53.5 26q-36 0 -51.5 -26.5t-17.5 -75.5v-41h-155v44q0 105 60 163.5t163 58.5q106 0 164.5 -56t58.5 -161
q0 -70 -29 -118.5t-74 -60.5q103 -38 103 -189q0 -118 -52 -184t-165 -66q-116 0 -167 64z" />
    <glyph glyph-name="uni0418" unicode="&#x418;" horiz-adv-x="580" 
d="M63 810h132v-485l214 485h108v-810h-134v493l-216 -493h-104v810z" />
    <glyph glyph-name="uni0419" unicode="&#x419;" horiz-adv-x="580" 
d="M63 810h132v-485l214 485h108v-810h-134v493l-216 -493h-104v810zM190.5 914q-40.5 40 -40.5 112h86q0 -38 15 -55.5t51 -17.5q35 0 50.5 18t15.5 55h85q0 -72 -40 -112t-111 -40t-111.5 40z" />
    <glyph glyph-name="uni041A" unicode="&#x41a;" horiz-adv-x="559" 
d="M63 810h165v-329h23l125 329h163l-150 -381l159 -429h-169l-128 362h-23v-362h-165v810z" />
    <glyph glyph-name="uni041B" unicode="&#x41b;" horiz-adv-x="640" 
d="M6 117q56 -1 77.5 17t31 77t21.5 222l27 377h413v-810h-164v685h-102l-16 -279q-12 -174 -28 -252t-63.5 -116.5t-151.5 -38.5q-29 0 -45 1v117z" />
    <glyph glyph-name="uni041C" unicode="&#x41c;" horiz-adv-x="695" 
d="M72 810h175l100 -511l106 511h169l15 -810h-120l-13 550l-104 -550h-102l-107 553l-12 -553h-121z" />
    <glyph glyph-name="uni041D" unicode="&#x41d;" horiz-adv-x="599" 
d="M63 810h165v-332h143v332h165v-810h-165v359h-143v-359h-165v810z" />
    <glyph glyph-name="uni041E" unicode="&#x41e;" horiz-adv-x="576" 
d="M104 56.5q-55 67.5 -55 198.5v302q0 131 55 197t184 66q128 0 183.5 -66.5t55.5 -196.5v-303q0 -130 -55.5 -197.5t-183.5 -67.5q-129 0 -184 67.5zM344.5 135.5q14.5 28.5 14.5 78.5v383q0 50 -14.5 77.5t-56.5 27.5t-56.5 -27.5t-14.5 -77.5v-383q0 -51 14 -79t57 -28
q42 0 56.5 28.5z" />
    <glyph glyph-name="uni041F" unicode="&#x41f;" horiz-adv-x="598" 
d="M61 810h477v-810h-163v692h-152v-692h-162v810z" />
    <glyph glyph-name="uni0420" unicode="&#x420;" horiz-adv-x="551" 
d="M61 810h257q210 0 210 -233q0 -123 -60 -174.5t-167 -51.5h-76v-351h-164v810zM284 467q53 0 71 25t18 88q0 41 -6 64.5t-25.5 36.5t-58.5 13h-58v-227h59z" />
    <glyph glyph-name="uni0421" unicode="&#x421;" horiz-adv-x="553" 
d="M103 58.5q-54 69.5 -54 200.5v290q0 134 53.5 202.5t183.5 68.5q124 0 175.5 -60.5t51.5 -173.5v-68h-160v75q0 36 -3.5 58t-18 36.5t-44.5 14.5q-45 0 -58 -29t-13 -85v-368q0 -57 15 -85t56 -28q42 0 54 28.5t12 84.5v79h160v-67q0 -116 -51 -179.5t-176 -63.5
q-129 0 -183 69.5z" />
    <glyph glyph-name="uni0422" unicode="&#x422;" horiz-adv-x="438" 
d="M137 688h-125v122h414v-122h-123v-688h-166v688z" />
    <glyph glyph-name="uni0423" unicode="&#x423;" horiz-adv-x="532" 
d="M53 -40l27 -1q63 0 93.5 20t30.5 65q0 15 -5 40l-178 726h154l69 -335l35 -226l27 226l59 335h156l-164 -748q-19 -89 -45.5 -133t-77.5 -62.5t-148 -18.5h-33v112z" />
    <glyph glyph-name="uni0424" unicode="&#x424;" horiz-adv-x="738" 
d="M300 94q-27 -3 -57 -3q-89 0 -142.5 51.5t-53.5 150.5v235q0 94 57 148t151 54q21 0 45 -2v135h137v-135q26 2 43 2q96 0 153.5 -54.5t57.5 -147.5v-236q0 -65 -24.5 -110.5t-67 -68.5t-94.5 -23q-33 0 -68 3v-124h-137v125zM300 194v436q-14 2 -25 2q-82 0 -82 -103
v-238q0 -50 19 -74.5t66 -24.5q12 0 22 2zM525.5 216.5q19.5 23.5 19.5 73.5v239q0 54 -19 78.5t-59 24.5q-12 0 -30 -2v-435q14 -2 24 -2q45 0 64.5 23.5z" />
    <glyph glyph-name="uni0425" unicode="&#x425;" horiz-adv-x="508" 
d="M168 434l-154 376h156l96 -234l80 234h140l-147 -415l161 -395h-154l-106 256l-93 -256h-139z" />
    <glyph glyph-name="uni0426" unicode="&#x426;" horiz-adv-x="672" 
d="M510 0h-447v810h165v-698h156v698h165v-698h103v-281h-122z" />
    <glyph glyph-name="uni0427" unicode="&#x427;" horiz-adv-x="596" 
d="M368 342q-57 -9 -102 -9q-62 0 -112 22.5t-79.5 66.5t-29.5 105v283h165v-283q0 -47 19.5 -69.5t80.5 -22.5q26 0 58 6v369h165v-810h-165v342z" />
    <glyph glyph-name="uni0428" unicode="&#x428;" horiz-adv-x="809" 
d="M63 810h157v-692h109v692h156v-692h105v692h156v-810h-683v810z" />
    <glyph glyph-name="uni0429" unicode="&#x429;" horiz-adv-x="889" 
d="M710 0h-647v810h157v-698h109v698h156v-698h105v698h157v-698h103v-281h-122z" />
    <glyph glyph-name="uni042A" unicode="&#x42a;" horiz-adv-x="618" 
d="M134 695h-142v115h308v-341h42q122 0 183 -55.5t61 -178.5q0 -92 -31.5 -143.5t-87 -71.5t-136.5 -20h-197v695zM332 110q54 0 77.5 27.5t23.5 91.5q0 62 -22 93.5t-82 31.5h-29v-244h32z" />
    <glyph glyph-name="uni042B" unicode="&#x42b;" horiz-adv-x="809" 
d="M63 810h165v-341h39q121 0 182 -56t61 -178q0 -92 -31.5 -143.5t-87.5 -71.5t-137 -20h-191v810zM581 810h165v-810h-165v810zM256 110q54 0 77.5 27.5t23.5 91.5q0 62 -22 93.5t-81 31.5h-26v-244h28z" />
    <glyph glyph-name="uni042C" unicode="&#x42c;" horiz-adv-x="543" 
d="M63 810h165v-341h38q121 0 182 -56t61 -178q0 -92 -31.5 -143.5t-87 -71.5t-136.5 -20h-191v810zM254 110q55 0 78.5 27.5t23.5 91.5q0 62 -22 93.5t-82 31.5h-24v-244h26z" />
    <glyph glyph-name="uni042D" unicode="&#x42d;" horiz-adv-x="563" 
d="M101.5 53.5q-51.5 60.5 -51.5 172.5v43h160v-49q0 -36 3.5 -58t18.5 -36.5t45 -14.5q43 0 56.5 29.5t13.5 85.5v140h-136v86h136v142q0 56 -15 84t-55 28q-43 0 -55 -28t-12 -84v-51h-160v39q0 115 51 179t176 64q129 0 183 -70t54 -200v-290q0 -134 -53.5 -203
t-183.5 -69q-124 0 -175.5 60.5z" />
    <glyph glyph-name="uni042E" unicode="&#x42e;" horiz-adv-x="803" 
d="M363 59q-50 70 -50 204v87h-88v-350h-162v810h162v-338h88v76q0 133 50 202.5t171 69.5q120 0 170 -70t50 -202v-285q0 -133 -50 -203.5t-170 -70.5q-121 0 -171 70zM587.5 135.5q13.5 28.5 13.5 78.5v383q0 50 -13.5 77.5t-53.5 27.5q-41 0 -54.5 -27.5t-13.5 -77.5
v-383q0 -50 13.5 -78.5t54.5 -28.5q40 0 53.5 28.5z" />
    <glyph glyph-name="uni042F" unicode="&#x42f;" horiz-adv-x="593" 
d="M168 361q-50 28 -79 82.5t-29 128.5q0 127 67 182.5t203 55.5h200v-810h-165v323h-39l-14 1l-122 -324h-179zM365 440v256h-32q-119 0 -119 -125q0 -63 28 -97t94 -34h29z" />
    <glyph glyph-name="uni0430" unicode="&#x430;" horiz-adv-x="466" 
d="M98 10q-30 20 -45.5 52.5t-15.5 67.5q0 67 33 110t79.5 67t123.5 52v54q0 31 -8.5 47t-30.5 16t-31 -14t-11 -40l-3 -40l-142 6q4 103 53 151.5t147 48.5q85 0 128 -47t43 -129v-269q0 -68 10 -143h-135q-4 29 -13 83q-12 -40 -40.5 -66.5t-71.5 -26.5q-40 0 -70 20z
M250.5 107q13.5 10 22.5 23v159q-47 -27 -72 -56t-25 -71q0 -31 12 -48t34 -17q15 0 28.5 10z" />
    <glyph glyph-name="uni0431" unicode="&#x431;" horiz-adv-x="473" 
d="M89 46q-42 55 -42 169v327q0 112 31 165.5t96 76.5q31 11 91 25q47 11 75 20t53 26l10 -122q-25 -13 -52.5 -20.5t-65.5 -14.5q-56 -11 -83 -22t-39 -38.5t-12 -76.5v-54q19 22 54.5 34.5t80.5 12.5q76 0 111 -48t35 -163v-134q0 -85 -23.5 -133t-65.5 -66.5t-104 -18.5
q-108 0 -150 55zM271.5 100q9.5 10 13 36t3.5 79v158q0 52 -8.5 71.5t-33.5 19.5q-38 0 -53 -60v-186q0 -53 4 -79.5t14 -37.5t31 -11q20 0 29.5 10z" />
    <glyph glyph-name="uni0432" unicode="&#x432;" horiz-adv-x="486" 
d="M52 578h195q78 0 121 -18.5t58.5 -50t15.5 -77.5q0 -51 -22 -78.5t-64 -39.5q57 -14 78.5 -50t21.5 -97q0 -86 -48 -126.5t-166 -40.5h-190v578zM245 349q29 0 41.5 18t12.5 55q0 36 -14.5 54.5t-51.5 18.5h-31v-146h43zM231 88q26 0 42 5.5t26 23.5t10 55q0 42 -9 61.5
t-24 24.5t-43 5h-31v-175h29z" />
    <glyph glyph-name="uni0433" unicode="&#x433;" horiz-adv-x="339" 
d="M52 578h276v-103h-126v-475h-150v578z" />
    <glyph glyph-name="uni0434" unicode="&#x434;" horiz-adv-x="583" 
d="M26 93q65 35 98.5 109.5t40.5 211.5l14 164h306v-483h81v-250h-109l-11 155h-301l-9 -155h-110v248zM346 95v390h-55l-9 -106q-5 -122 -29 -186t-66 -98h159z" />
    <glyph glyph-name="uni0435" unicode="&#x435;" horiz-adv-x="459" 
d="M89.5 42q-49.5 52 -49.5 150v194q0 98 50 150t144 52q97 0 142 -52t45 -154v-101h-231v-112q0 -37 11.5 -54t33.5 -17q45 0 45 65v56h140v-50q0 -87 -48 -133t-138 -46q-95 0 -144.5 52zM280 353v56q0 38 -11 54.5t-35 16.5q-23 0 -33.5 -18t-10.5 -64v-45h90z" />
    <glyph glyph-name="uni0436" unicode="&#x436;" horiz-adv-x="643" 
d="M128 292l-114 286h133l98 -275h11v275h126v-275h10l104 275h133l-118 -286l126 -292h-128l-117 280h-10v-280h-126v280h-11l-111 -280h-128z" />
    <glyph glyph-name="uni0437" unicode="&#x437;" horiz-adv-x="434" 
d="M75 41.5q-38 52.5 -38 147.5h122q0 -49 14.5 -72.5t45.5 -23.5q33 0 45 22t12 63q0 45 -24 62.5t-86 17.5v82q41 0 63 7.5t30 23.5t8 45q0 67 -54 67q-31 0 -44.5 -18.5t-13.5 -64.5h-121q0 89 42.5 138.5t143.5 49.5q92 0 137.5 -45t45.5 -116q0 -57 -24.5 -87.5
t-62.5 -39.5q43 -14 66.5 -44t23.5 -97q0 -79 -47 -124.5t-143 -45.5q-103 0 -141 52.5z" />
    <glyph glyph-name="uni0438" unicode="&#x438;" horiz-adv-x="497" 
d="M52 578h120v-326l156 326h118v-578h-122v324l-153 -324h-119v578z" />
    <glyph glyph-name="uni0439" unicode="&#x439;" horiz-adv-x="497" 
d="M52 578h120v-326l156 326h118v-578h-122v324l-153 -324h-119v578zM139.5 682q-40.5 40 -40.5 112h86q0 -38 15 -55.5t51 -17.5q35 0 50.5 18t15.5 55h85q0 -72 -40 -112t-111 -40t-111.5 40z" />
    <glyph glyph-name="uni043A" unicode="&#x43a;" horiz-adv-x="492" 
d="M52 578h150v-231h26l92 231h162l-116 -275l119 -303h-160l-97 259h-26v-259h-150v578z" />
    <glyph glyph-name="uni043B" unicode="&#x43b;" horiz-adv-x="550" 
d="M14 102q43 0 64.5 19t31.5 65t17 142l17 250h354v-578h-151v474h-74l-12 -171q-9 -128 -29.5 -192t-64 -90.5t-128.5 -26.5h-25v108z" />
    <glyph glyph-name="uni043C" unicode="&#x43c;" horiz-adv-x="570" 
d="M53 578h112l120 -293l121 293h111l3 -578h-119v313l-93 -230h-45l-93 230v-313h-120z" />
    <glyph glyph-name="uni043D" unicode="&#x43d;" horiz-adv-x="511" 
d="M52 578h150v-228h106v228h152v-578h-152v245h-106v-245h-150v578z" />
    <glyph glyph-name="uni043E" unicode="&#x43e;" 
d="M90.5 40q-50.5 50 -50.5 145v208q0 95 50.5 145t144.5 50t144.5 -50t50.5 -145v-208q0 -95 -50.5 -145t-144.5 -50t-144.5 50zM271.5 112.5q9.5 20.5 9.5 61.5v229q0 41 -9.5 62t-35.5 21q-27 0 -37 -21.5t-10 -61.5v-229q0 -40 10 -61t37 -21q26 0 35.5 20.5z" />
    <glyph glyph-name="uni043F" unicode="&#x43f;" horiz-adv-x="497" 
d="M52 578h394v-578h-151v473h-93v-473h-150v578z" />
    <glyph glyph-name="uni0440" unicode="&#x440;" horiz-adv-x="492" 
d="M52 578h150v-43q58 53 123 53q65 -1 95 -53t30 -128v-226q0 -86 -33 -138.5t-97 -52.5q-57 0 -118 54v-234h-150v768zM299 175v242q0 76 -45 76q-24 0 -52 -22v-363q27 -17 51 -17q46 0 46 84z" />
    <glyph glyph-name="uni0441" unicode="&#x441;" horiz-adv-x="456" 
d="M89 43q-49 53 -49 149v195q0 97 49 149t144 52q93 0 140.5 -44t47.5 -132v-55h-145v59q0 38 -10 52.5t-32 14.5q-24 0 -33.5 -18t-9.5 -63v-228q0 -45 10.5 -62t32.5 -17q23 0 32.5 16t9.5 51v70h145v-64q0 -87 -48 -132.5t-140 -45.5q-95 0 -144 53z" />
    <glyph glyph-name="uni0442" unicode="&#x442;" horiz-adv-x="392" 
d="M120 474h-105v104h362v-104h-106v-474h-151v474z" />
    <glyph glyph-name="uni0443" unicode="&#x443;" horiz-adv-x="436" 
d="M62 -57q51 0 73.5 10.5t22.5 37.5q0 13 -6.5 41t-14.5 58l-132 488h144l73 -355l60 355h144l-134 -596q-18 -80 -67 -112.5t-131 -32.5h-32v106z" />
    <glyph glyph-name="uni0444" unicode="&#x444;" horiz-adv-x="677" 
d="M272 13h-16q-49 0 -98 19t-82.5 66t-33.5 124v150q0 68 31 113.5t79.5 67t103.5 21.5h16v235h132v-235h19q55 0 103.5 -21.5t79 -67t30.5 -113.5v-150q0 -77 -33.5 -124t-82 -66t-97.5 -19h-19v-189h-132v189zM272 106v382h-13q-35 0 -56 -25t-21 -77v-173
q0 -54 20.5 -80.5t57.5 -26.5h12zM414 106q36 0 58.5 27t22.5 80v173q0 51 -22 76.5t-58 25.5h-11v-382h10z" />
    <glyph glyph-name="uni0445" unicode="&#x445;" horiz-adv-x="431" 
d="M135 314l-119 264h150l68 -148l59 148h121l-118 -286l131 -292h-152l-75 167l-62 -167h-128z" />
    <glyph glyph-name="uni0446" unicode="&#x446;" horiz-adv-x="550" 
d="M413 0h-362v578h151v-483h99v483h151v-483h80v-250h-109z" />
    <glyph glyph-name="uni0447" unicode="&#x447;" horiz-adv-x="482" 
d="M280 232q-40 -4 -59 -4q-98 0 -140 35.5t-42 109.5v205h150v-197q0 -33 13.5 -48t50.5 -16q7 0 27 2v259h150v-578h-150v232z" />
    <glyph glyph-name="uni0448" unicode="&#x448;" horiz-adv-x="693" 
d="M51 578h141v-475h83v475h141v-475h83v475h141v-578h-589v578z" />
    <glyph glyph-name="uni0449" unicode="&#x449;" horiz-adv-x="752" 
d="M600 0h-551v578h142v-483h82v483h141v-483h83v483h141v-483h81v-250h-109z" />
    <glyph glyph-name="uni044A" unicode="&#x44a;" horiz-adv-x="541" 
d="M116 475h-112v103h262v-234h9q83 0 135 -15.5t78 -54t26 -105.5q0 -62 -24.5 -98.5t-77 -53.5t-139.5 -17h-157v475zM271 87q60 0 83 17.5t23 64.5q0 49 -22.5 67t-81.5 19h-7v-168h5z" />
    <glyph glyph-name="uni044B" unicode="&#x44b;" horiz-adv-x="715" 
d="M52 578h150v-234h8q84 0 136 -15.5t78 -52.5t26 -103q0 -63 -24.5 -100.5t-77 -55t-140.5 -17.5h-156v578zM513 578h151v-578h-151v578zM207 87q59 0 82.5 18.5t23.5 66.5q0 47 -22.5 64.5t-81.5 18.5h-7v-168h5z" />
    <glyph glyph-name="uni044C" unicode="&#x44c;" horiz-adv-x="475" 
d="M52 578h150v-234h8q84 0 136 -15t78 -52t26 -102q0 -64 -24.5 -102t-77 -55.5t-140.5 -17.5h-156v578zM207 87q59 0 82.5 18.5t23.5 66.5q0 47 -22.5 64.5t-81.5 18.5h-7v-168h5z" />
    <glyph glyph-name="uni044D" unicode="&#x44d;" horiz-adv-x="463" 
d="M42 165v27h145v-28q0 -38 10 -52.5t32 -14.5q23 0 32.5 18t9.5 64v74h-134v67h134v81q0 45 -10 61.5t-32 16.5q-23 0 -32.5 -15.5t-9.5 -50.5v-38h-145v35q0 87 48 132t140 45q95 0 144 -52.5t49 -148.5v-195q0 -96 -49 -148.5t-145 -52.5q-187 0 -187 175z" />
    <glyph glyph-name="uni044E" unicode="&#x44e;" horiz-adv-x="674" 
d="M316 40q-47 50 -47 145v53h-72v-238h-145v578h145v-235h72v50q0 95 47 145t135 50q87 0 134.5 -50t47.5 -145v-208q0 -95 -47.5 -145t-134.5 -50q-88 0 -135 50zM484.5 118.5q8.5 20.5 8.5 61.5v218q0 41 -8.5 61.5t-33.5 20.5t-33.5 -21t-8.5 -61v-218q0 -41 8.5 -61.5
t33.5 -20.5t33.5 20.5z" />
    <glyph glyph-name="uni044F" unicode="&#x44f;" horiz-adv-x="498" 
d="M109 241q-35 18 -53.5 59.5t-18.5 98.5q0 179 216 179h194v-578h-151v211q-36 0 -49 1l-71 -212h-161zM296 300v193h-7q-59 -1 -87 -24t-28 -70q0 -99 114 -99h8z" />
    <glyph glyph-name="uni0450" unicode="&#x450;" horiz-adv-x="459" 
d="M89.5 42q-49.5 52 -49.5 150v194q0 98 50 150t144 52q97 0 142 -52t45 -154v-101h-231v-112q0 -37 11.5 -54t33.5 -17q45 0 45 65v56h140v-50q0 -87 -48 -133t-138 -46q-95 0 -144.5 52zM280 353v56q0 38 -11 54.5t-35 16.5q-23 0 -33.5 -18t-10.5 -64v-45h90zM65 839
h155l60 -201h-91z" />
    <glyph glyph-name="uni0451" unicode="&#x451;" horiz-adv-x="459" 
d="M89.5 42q-49.5 52 -49.5 150v194q0 98 50 150t144 52q97 0 142 -52t45 -154v-101h-231v-112q0 -37 11.5 -54t33.5 -17q45 0 45 65v56h140v-50q0 -87 -48 -133t-138 -46q-95 0 -144.5 52zM280 353v56q0 38 -11 54.5t-35 16.5q-23 0 -33.5 -18t-10.5 -64v-45h90zM65 810
h125v-140h-125v140zM273 810h126v-140h-126v140z" />
    <glyph glyph-name="uni0452" unicode="&#x452;" horiz-adv-x="499" 
d="M457 324v-221q0 -109 -21 -164t-71.5 -76t-148.5 -21h-25v79h17q44 0 64.5 17.5t27 52.5t6.5 102v230q0 31 -8.5 45.5t-31.5 14.5q-20 0 -58 -16v-367h-150v597h-66v78h66v135h150v-135h130v-78h-130v-145q38 15 65.5 23.5t58.5 8.5q125 0 125 -160z" />
    <glyph glyph-name="uni0453" unicode="&#x453;" horiz-adv-x="339" 
d="M52 578h276v-103h-126v-475h-150v578zM212 839h154l-123 -201h-92z" />
    <glyph glyph-name="uni0454" unicode="&#x454;" horiz-adv-x="447" 
d="M89 43q-49 53 -49 149v195q0 96 49 148.5t144 52.5q93 0 140.5 -44t47.5 -132v-35h-145v36q0 38 -9.5 52.5t-32.5 14.5t-32.5 -17.5t-9.5 -63.5v-69h135v-72h-135v-81q0 -45 10 -62t33 -17t32 16t9 51v46h145v-43q0 -88 -47.5 -133t-139.5 -45q-96 0 -145 53z" />
    <glyph glyph-name="uni0455" unicode="&#x455;" horiz-adv-x="413" 
d="M96 26.5q-49 36.5 -75 112.5l106 44q30 -89 85 -89q21 0 31.5 9.5t10.5 26.5q0 23 -14.5 41t-57.5 55l-54 46q-48 41 -71 76t-23 84q0 46 23 81.5t62.5 55t86.5 19.5q70 0 115.5 -39.5t62.5 -110.5l-98 -44q-9 36 -29 61.5t-47 25.5q-18 0 -29 -10.5t-11 -27.5t17 -36.5
t53 -50.5l54 -48q47 -40 73.5 -77t26.5 -86q0 -48 -23.5 -83t-63.5 -53.5t-87 -18.5q-75 0 -124 36.5z" />
    <glyph glyph-name="uni0456" unicode="&#x456;" horiz-adv-x="258" 
d="M53 786h152v-113h-152v113zM54 578h151v-578h-151v578z" />
    <glyph glyph-name="uni0457" unicode="&#x457;" horiz-adv-x="268" 
d="M60 578h151v-578h-151v578zM-31 810h125v-140h-125v140zM177 810h126v-140h-126v140z" />
    <glyph glyph-name="uni0458" unicode="&#x458;" horiz-adv-x="267" 
d="M65 786h152v-113h-152v113zM-11 -161v108q27 -3 29 -3q47 0 47 53v581h151v-599q0 -70 -38 -111t-109 -41q-44 0 -80 12z" />
    <glyph glyph-name="uni0459" unicode="&#x459;" horiz-adv-x="778" 
d="M28 102q43 0 64.5 19.5t32 65.5t16.5 139l18 252h353v-235h9q120 0 175.5 -37.5t55.5 -131.5q0 -93 -54.5 -133t-178.5 -41h-157v474h-75l-13 -179q-9 -127 -30.5 -190.5t-65 -87t-125.5 -23.5h-25v108zM517 87q55 0 76.5 18.5t21.5 64.5q0 47 -22 65t-76 18h-5v-166h5z
" />
    <glyph glyph-name="uni045A" unicode="&#x45a;" horiz-adv-x="705" 
d="M52 578h150v-233h93v234h151v-236h11q117 -2 170.5 -40t53.5 -134q0 -90 -54 -129t-179 -39h-153v224h-93v-225h-150v578zM452 87q51 2 71.5 19.5t20.5 61.5q0 47 -20 65.5t-72 20.5h-6v-167h6z" />
    <glyph glyph-name="uni045B" unicode="&#x45b;" horiz-adv-x="505" 
d="M457 324v-324h-151v323q0 31 -8.5 45.5t-31.5 14.5q-20 0 -58 -16v-367h-150v597h-66v78h66v135h150v-135h130v-78h-130v-145q38 15 65.5 23.5t58.5 8.5q125 0 125 -160z" />
    <glyph glyph-name="uni045C" unicode="&#x45c;" horiz-adv-x="492" 
d="M52 578h150v-231h26l92 231h162l-116 -275l119 -303h-160l-97 259h-26v-259h-150v578zM279 839h154l-123 -201h-92z" />
    <glyph glyph-name="uni045D" unicode="&#x45d;" horiz-adv-x="497" 
d="M52 578h120v-326l156 326h118v-578h-122v324l-153 -324h-119v578zM84 839h155l60 -201h-91z" />
    <glyph glyph-name="uni045E" unicode="&#x45e;" horiz-adv-x="436" 
d="M62 -57q51 0 73.5 10.5t22.5 37.5q0 13 -6.5 41t-14.5 58l-132 488h144l73 -355l60 355h144l-134 -596q-18 -80 -67 -112.5t-131 -32.5h-32v106zM115.5 682q-40.5 40 -40.5 112h86q0 -38 15 -55.5t51 -17.5q35 0 50.5 18t15.5 55h85q0 -72 -40 -112t-111 -40t-111.5 40z
" />
    <glyph glyph-name="uni045F" unicode="&#x45f;" horiz-adv-x="503" 
d="M193 0h-141v578h150v-484h98v484h151v-578h-134l-9 -155h-105z" />
    <glyph glyph-name="uni0462" unicode="&#x462;" horiz-adv-x="600" 
d="M505 413q61 -56 61 -178q0 -92 -31.5 -143.5t-87 -71.5t-136.5 -20h-191v573h-113v114h113v123h165v-123h172v-114h-172v-104h38q121 0 182 -56zM389.5 137.5q23.5 27.5 23.5 91.5q0 62 -22 93.5t-82 31.5h-24v-244h26q55 0 78.5 27.5z" />
    <glyph glyph-name="uni0463" unicode="&#x463;" horiz-adv-x="510" 
d="M380 328.5q52 -15.5 78 -54t26 -105.5q0 -62 -24.5 -98.5t-77 -53.5t-139.5 -17h-157v475h-90v103h90v232h150v-232h141v-103h-141v-131h8q84 0 136 -15.5zM323.5 104.5q23.5 17.5 23.5 64.5q0 49 -22.5 67t-81.5 19h-7v-168h5q59 0 82.5 17.5z" />
    <glyph glyph-name="uni046A" unicode="&#x46a;" horiz-adv-x="737" 
d="M732 0h-149l-141 381h-7v-381h-132v381h-7l-142 -381h-149l222 509l-177 301h631l-172 -301zM484 696h-236l122 -206z" />
    <glyph glyph-name="uni046B" unicode="&#x46b;" horiz-adv-x="594" 
d="M588 0h-127l-98 246h-6v-246h-119v246h-6l-98 -246h-128l161 347l-138 231h533l-134 -228zM382 482h-173l88 -153z" />
    <glyph glyph-name="uni0490" unicode="&#x490;" horiz-adv-x="443" 
d="M63 810h263v126h98v-248h-196v-688h-165v810z" />
    <glyph glyph-name="uni0491" unicode="&#x491;" horiz-adv-x="341" 
d="M52 578h202v116h78v-219h-129v-475h-151v578z" />
    <glyph glyph-name="uni0492" unicode="&#x492;" horiz-adv-x="461" 
d="M262 697v-217h131v-117h-131v-363h-165v363h-89v117h89v330h342v-113h-177z" />
    <glyph glyph-name="uni0493" unicode="&#x493;" horiz-adv-x="399" 
d="M225 466v-120h118v-103h-118v-243h-151v243h-74v103h74v232h313v-112h-162z" />
    <glyph glyph-name="uni0496" unicode="&#x496;" horiz-adv-x="805" 
d="M731 -169l-33 169h-84l-155 396h-8v-396h-132v396h-9l-155 -396h-150l174 409l-166 401h154l144 -381h8v381h132v-381h8l143 381h155l-167 -401l143 -334l38 43l38 -198z" />
    <glyph glyph-name="uni0497" unicode="&#x497;" horiz-adv-x="675" 
d="M677 95v-250h-108l-11 155h-49l-117 280h-10v-280h-126v280h-11l-111 -280h-128l122 292l-114 286h133l98 -275h11v275h126v-275h10l104 275h133l-118 -286l85 -197h81z" />
    <glyph glyph-name="uni049A" unicode="&#x49a;" horiz-adv-x="584" 
d="M510 -169l-33 169h-100l-125 362l-27 -44v-318h-164v810h164v-342l147 342h160l-152 -364l135 -367l35 39l38 -198z" />
    <glyph glyph-name="uni049B" unicode="&#x49b;" horiz-adv-x="526" 
d="M528 95v-250h-108l-11 155h-84l-97 259h-26v-259h-150v578h150v-231h26l92 231h162l-116 -275l82 -208h80z" />
    <glyph glyph-name="uni04A2" unicode="&#x4a2;" horiz-adv-x="616" 
d="M540 -169l-33 169h-136v359h-143v-359h-165v810h165v-332h143v332h165v-742l45 50l37 -198z" />
    <glyph glyph-name="uni04A3" unicode="&#x4a3;" horiz-adv-x="540" 
d="M536 95v-250h-108l-11 155h-109v245h-106v-245h-150v578h150v-228h106v228h152v-483h76z" />
    <glyph glyph-name="uni04AE" unicode="&#x4ae;" horiz-adv-x="491" 
d="M167 321l-158 489h155l87 -285l80 285h151l-156 -489v-321h-159v321z" />
    <glyph glyph-name="uni04AF" unicode="&#x4af;" horiz-adv-x="434" 
d="M155 70l-150 508h138l78 -317l67 317h138l-139 -505v-247h-132v244z" />
    <glyph glyph-name="uni04B0" unicode="&#x4b0;" horiz-adv-x="497" 
d="M348 374h126v-103h-143v-271h-159v271h-142v103h125l-141 436h155l87 -285l80 285h151z" />
    <glyph glyph-name="uni04B1" unicode="&#x4b1;" horiz-adv-x="436" 
d="M290 83h107v-88h-110v-169h-132v169h-113v88h109l-146 495h138l78 -317l67 317h138z" />
    <glyph glyph-name="uni04BA" unicode="&#x4ba;" horiz-adv-x="594" 
d="M226 468q57 9 96 9q108 0 167.5 -50t59.5 -144v-283h-165v283q0 47 -19.5 69.5t-80.5 22.5q-27 0 -58 -6v-369h-165v810h165v-342z" />
    <glyph glyph-name="uni04BB" unicode="&#x4bb;" horiz-adv-x="496" 
d="M53 810h151v-285q63 63 142 63q49 0 75 -37t26 -95v-456h-150v432q0 24 -8 35.5t-27 11.5q-25 0 -58 -25v-454h-151v810z" />
    <glyph glyph-name="uni04C9" unicode="&#x4c9;" horiz-adv-x="616" 
d="M490 -169l-7 169h-112v359h-143v-359h-165v810h165v-332h143v332h165v-732l45 40l6 -198z" />
    <glyph glyph-name="uni04CA" unicode="&#x4ca;" horiz-adv-x="540" 
d="M536 95l-60 -250h-108l26 155h-86v245h-106v-245h-150v578h150v-228h106v228h152v-483h76z" />
    <glyph glyph-name="uni04D8" unicode="&#x4d8;" horiz-adv-x="572" 
d="M106 53.5q-61 64.5 -61 186.5v181h310v181q0 53 -16.5 76.5t-54.5 23.5t-54.5 -23.5t-16.5 -76.5v-106h-168v75q0 122 61.5 185.5t179.5 63.5q114 0 175.5 -67.5t61.5 -189.5v-317q0 -121 -62 -189t-175 -68q-119 0 -180 64.5zM338.5 131.5q16.5 24.5 16.5 76.5v109h-142
v-109q0 -52 16.5 -76.5t54.5 -24.5t54.5 24.5z" />
    <glyph glyph-name="uni04D9" unicode="&#x4d9;" horiz-adv-x="459" 
d="M84 40.5q-45 51.5 -45 153.5v101h231v112q0 73 -44 73q-23 0 -34.5 -15.5t-11.5 -49.5v-55h-141v49q0 87 48 133t138 46q95 0 144.5 -52t49.5 -149v-197q0 -98 -49.5 -149.5t-144.5 -51.5q-96 0 -141 51.5zM259.5 115q10.5 18 10.5 63v45h-90v-56q0 -38 11 -54t35 -16
q23 0 33.5 18z" />
    <glyph glyph-name="uni04E8" unicode="&#x4e8;" horiz-adv-x="576" 
d="M471.5 753.5q55.5 -66.5 55.5 -196.5v-303q0 -130 -55.5 -197.5t-183.5 -67.5q-129 0 -184 67.5t-55 198.5v302q0 131 55 197t184 66q128 0 183.5 -66.5zM231.5 674.5q-14.5 -27.5 -14.5 -77.5v-128h142v128q0 50 -14.5 77.5t-56.5 27.5t-56.5 -27.5zM344.5 135.5
q14.5 28.5 14.5 78.5v152h-142v-152q0 -51 14 -79t57 -28q42 0 56.5 28.5z" />
    <glyph glyph-name="uni04E9" unicode="&#x4e9;" horiz-adv-x="470" 
d="M379.5 538q50.5 -50 50.5 -145v-208q0 -95 -50.5 -145t-144.5 -50t-144.5 50t-50.5 145v208q0 95 50.5 145t144.5 50t144.5 -50zM199 464.5q-10 -21.5 -10 -61.5v-71h92v71q0 41 -9.5 62t-35.5 21q-27 0 -37 -21.5zM271.5 112.5q9.5 20.5 9.5 61.5v83h-92v-83
q0 -40 10 -61t37 -21q26 0 35.5 20.5z" />
    <glyph glyph-name="uni1E02" unicode="&#x1e02;" horiz-adv-x="575" 
d="M61 810h206q118 0 183 -45.5t65 -164.5q0 -72 -30.5 -113.5t-87.5 -51.5q71 -10 106.5 -60t35.5 -137q0 -238 -236 -238h-242v810zM267 483q60 0 82 27t22 86q0 54 -28 77.5t-87 23.5h-31v-214h42zM272 116q60 0 84.5 30t24.5 95q0 70 -25.5 100.5t-86.5 30.5h-44v-256
h47zM216 1034h144v-146h-144v146z" />
    <glyph glyph-name="uni1E03" unicode="&#x1e03;" horiz-adv-x="493" 
d="M203 43v-43h-151v810h151v-275q58 53 123 53t95 -52.5t30 -128.5v-226q0 -86 -33 -138.5t-97 -52.5q-58 0 -118 53zM290 113.5q10 22.5 10 61.5v242q0 76 -44 76q-26 0 -53 -22v-362q25 -18 52 -18q25 0 35 22.5zM56 1034h144v-146h-144v146z" />
    <glyph glyph-name="uni1E0A" unicode="&#x1e0a;" horiz-adv-x="573" 
d="M61 810h198q102 0 159.5 -26.5t82 -81.5t24.5 -146v-295q0 -93 -24 -149.5t-81 -84t-157 -27.5h-202v810zM261 115q43 0 63.5 13.5t26 39.5t5.5 75v335q0 46 -6.5 69.5t-26.5 35t-63 11.5h-35v-579h36zM215 1034h144v-146h-144v146z" />
    <glyph glyph-name="uni1E0B" unicode="&#x1e0b;" horiz-adv-x="490" 
d="M42 181v212q0 89 34 142t102 53q57 0 110 -46v268h151v-810h-151v43q-53 -53 -110 -53q-136 0 -136 191zM288 107v368q-26 15 -48 15q-24 0 -35 -20.5t-11 -54.5v-245q0 -80 46 -80q22 0 48 17zM292 1034h144v-146h-144v146z" />
    <glyph glyph-name="uni1E1E" unicode="&#x1e1e;" horiz-adv-x="425" 
d="M61 810h342v-113h-178v-218h151v-115h-151v-364h-164v810zM141 1034h144v-146h-144v146z" />
    <glyph glyph-name="uni1E1F" unicode="&#x1e1f;" horiz-adv-x="313" 
d="M75 475h-58v103h58v40q0 58 11 94t43.5 56t96.5 20q41 0 77 -5v-112q-25 5 -36 5q-41 0 -41 -51v-47h77v-103h-77v-475h-151v475zM124 1007h144v-146h-144v146z" />
    <glyph glyph-name="uni1E40" unicode="&#x1e40;" horiz-adv-x="695" 
d="M72 810h175l100 -511l106 511h169l15 -810h-120l-13 550l-104 -550h-102l-107 553l-12 -553h-121zM276 1034h144v-146h-144v146z" />
    <glyph glyph-name="uni1E41" unicode="&#x1e41;" horiz-adv-x="737" 
d="M52 578h147v-48q58 59 136 59q34 0 59.5 -17.5t38.5 -52.5q62 70 147 70q50 0 79.5 -36.5t29.5 -102.5v-450h-146v435q0 28 -9.5 39.5t-28.5 11.5q-13 0 -29.5 -7t-31.5 -20v-9v-450h-146v435q0 28 -9.5 39.5t-28.5 11.5q-13 0 -29.5 -7t-31.5 -20v-459h-147v578z
M297 802h144v-146h-144v146z" />
    <glyph glyph-name="uni1E56" unicode="&#x1e56;" horiz-adv-x="551" 
d="M61 810h257q210 0 210 -233q0 -123 -60 -174.5t-167 -51.5h-76v-351h-164v810zM284 467q53 0 71 25t18 88q0 41 -6 64.5t-25.5 36.5t-58.5 13h-58v-227h59zM204 1034h144v-146h-144v146z" />
    <glyph glyph-name="uni1E57" unicode="&#x1e57;" horiz-adv-x="492" 
d="M52 578h150v-43q58 53 123 53q65 -1 95 -53t30 -128v-226q0 -86 -33 -138.5t-97 -52.5q-57 0 -118 54v-234h-150v768zM299 175v242q0 76 -45 76q-24 0 -52 -22v-363q27 -17 51 -17q46 0 46 84zM174 802h144v-146h-144v146z" />
    <glyph glyph-name="uni1E60" unicode="&#x1e60;" horiz-adv-x="505" 
d="M102 50.5q-56 61.5 -61 190.5l142 24q2 -77 21.5 -113.5t58.5 -36.5q29 0 42 18.5t13 47.5q0 48 -21.5 81.5t-67.5 73.5l-84 73q-50 42 -76.5 90t-26.5 115q0 99 58.5 152.5t161.5 53.5q110 0 153 -63.5t49 -161.5l-143 -21q-2 64 -14.5 94.5t-49.5 30.5q-27 0 -42 -20.5
t-15 -48.5q0 -40 17.5 -67.5t55.5 -60.5l82 -72q58 -51 91 -107.5t33 -132.5q0 -58 -26 -103.5t-73.5 -71.5t-109.5 -26q-112 0 -168 61.5zM181 1034h144v-146h-144v146z" />
    <glyph glyph-name="uni1E61" unicode="&#x1e61;" horiz-adv-x="413" 
d="M96 26.5q-49 36.5 -75 112.5l106 44q30 -89 85 -89q21 0 31.5 9.5t10.5 26.5q0 23 -14.5 41t-57.5 55l-54 46q-48 41 -71 76t-23 84q0 46 23 81.5t62.5 55t86.5 19.5q70 0 115.5 -39.5t62.5 -110.5l-98 -44q-9 36 -29 61.5t-47 25.5q-18 0 -29 -10.5t-11 -27.5t17 -36.5
t53 -50.5l54 -48q47 -40 73.5 -77t26.5 -86q0 -48 -23.5 -83t-63.5 -53.5t-87 -18.5q-75 0 -124 36.5zM135 802h144v-146h-144v146z" />
    <glyph glyph-name="uni1E6A" unicode="&#x1e6a;" horiz-adv-x="438" 
d="M137 688h-125v122h414v-122h-123v-688h-166v688zM147 1034h144v-146h-144v146z" />
    <glyph glyph-name="uni1E6B" unicode="&#x1e6b;" horiz-adv-x="344" 
d="M104.5 32q-33.5 39 -33.5 119v328h-57v99h57v174h153v-174h84v-99h-84v-313q0 -51 51 -51q27 0 43 4v-118q-53 -8 -93 -8q-87 0 -120.5 39zM75 976h144v-146h-144v146z" />
    <glyph glyph-name="Wgrave" unicode="&#x1e80;" horiz-adv-x="704" 
d="M29 810h139l57 -495l71 494h111l74 -492l57 493h137l-104 -810h-141l-78 513l-75 -513h-143zM185 1071h155l60 -201h-91z" />
    <glyph glyph-name="wgrave" unicode="&#x1e81;" horiz-adv-x="595" 
d="M23 578h125l46 -349l52 349h110l47 -354l51 354h119l-89 -578h-129l-56 343l-61 -343h-129zM131 839h155l60 -201h-91z" />
    <glyph glyph-name="Wacute" unicode="&#x1e82;" horiz-adv-x="704" 
d="M29 810h139l57 -495l71 494h111l74 -492l57 493h137l-104 -810h-141l-78 513l-75 -513h-143zM365 1071h154l-123 -201h-92z" />
    <glyph glyph-name="wacute" unicode="&#x1e83;" horiz-adv-x="595" 
d="M23 578h125l46 -349l52 349h110l47 -354l51 354h119l-89 -578h-129l-56 343l-61 -343h-129zM311 839h154l-123 -201h-92z" />
    <glyph glyph-name="Wdieresis" unicode="&#x1e84;" horiz-adv-x="704" 
d="M29 810h139l57 -495l71 494h111l74 -492l57 493h137l-104 -810h-141l-78 513l-75 -513h-143zM185 1042h125v-140h-125v140zM393 1042h126v-140h-126v140z" />
    <glyph glyph-name="wdieresis" unicode="&#x1e85;" horiz-adv-x="595" 
d="M23 578h125l46 -349l52 349h110l47 -354l51 354h119l-89 -578h-129l-56 343l-61 -343h-129zM131 810h125v-140h-125v140zM339 810h126v-140h-126v140z" />
    <glyph glyph-name="uni1E9E" unicode="&#x1e9e;" horiz-adv-x="604" 
d="M535 376q37 -54 37 -142q0 -127 -62 -186t-184 -59h-35v113h22q100 0 100 129q0 66 -24 98t-76 32h-12v111l114 216q-31 14 -75 14q-120 0 -120 -140v-562h-165v557q0 122 67 192.5t203 70.5q115 0 211 -52v-112l-111 -209q73 -17 110 -71z" />
    <glyph glyph-name="uni1EA0" unicode="&#x1ea0;" horiz-adv-x="538" 
d="M178 810h183l156 -810h-152l-30 178h-128l-31 -178h-155zM319 280l-49 326l-48 -326h97zM203 -68h132v-133h-132v133z" />
    <glyph glyph-name="uni1EA1" unicode="&#x1ea1;" horiz-adv-x="466" 
d="M98 10q-30 20 -45.5 52.5t-15.5 67.5q0 67 33 110t79.5 67t123.5 52v54q0 31 -8.5 47t-30.5 16t-31 -14t-11 -40l-3 -40l-142 6q4 103 53 151.5t147 48.5q85 0 128 -47t43 -129v-269q0 -68 10 -143h-135q-4 29 -13 83q-12 -40 -40.5 -66.5t-71.5 -26.5q-40 0 -70 20z
M250.5 107q13.5 10 22.5 23v159q-47 -27 -72 -56t-25 -71q0 -31 12 -48t34 -17q15 0 28.5 10zM167 -68h132v-133h-132v133z" />
    <glyph glyph-name="uni1EA2" unicode="&#x1ea2;" horiz-adv-x="538" 
d="M178 810h183l156 -810h-152l-30 178h-128l-31 -178h-155zM319 280l-49 326l-48 -326h97zM220 910q38 18 54 30.5t16 32.5q0 36 -58 36q-31 0 -59 -7v65q50 13 97 13q52 0 86 -24t34 -73q0 -47 -31.5 -74.5t-88.5 -47.5z" />
    <glyph glyph-name="uni1EA3" unicode="&#x1ea3;" horiz-adv-x="466" 
d="M98 10q-30 20 -45.5 52.5t-15.5 67.5q0 67 33 110t79.5 67t123.5 52v54q0 31 -8.5 47t-30.5 16t-31 -14t-11 -40l-3 -40l-142 6q4 103 53 151.5t147 48.5q85 0 128 -47t43 -129v-269q0 -68 10 -143h-135q-4 29 -13 83q-12 -40 -40.5 -66.5t-71.5 -26.5q-40 0 -70 20z
M250.5 107q13.5 10 22.5 23v159q-47 -27 -72 -56t-25 -71q0 -31 12 -48t34 -17q15 0 28.5 10zM196 678q38 18 54 30.5t16 32.5q0 36 -58 36q-31 0 -59 -7v65q50 13 97 13q52 0 86 -24t34 -73q0 -47 -31.5 -74.5t-88.5 -47.5z" />
    <glyph glyph-name="uni1EA4" unicode="&#x1ea4;" horiz-adv-x="538" 
d="M178 810h183l156 -810h-152l-30 178h-128l-31 -178h-155zM319 280l-49 326l-48 -326h97zM456 1114h116l-87 -121h-82zM205 1042h128l95 -164h-108l-51 100l-50 -100h-107z" />
    <glyph glyph-name="uni1EA5" unicode="&#x1ea5;" horiz-adv-x="466" 
d="M98 10q-30 20 -45.5 52.5t-15.5 67.5q0 67 33 110t79.5 67t123.5 52v54q0 31 -8.5 47t-30.5 16t-31 -14t-11 -40l-3 -40l-142 6q4 103 53 151.5t147 48.5q85 0 128 -47t43 -129v-269q0 -68 10 -143h-135q-4 29 -13 83q-12 -40 -40.5 -66.5t-71.5 -26.5q-40 0 -70 20z
M250.5 107q13.5 10 22.5 23v159q-47 -27 -72 -56t-25 -71q0 -31 12 -48t34 -17q15 0 28.5 10zM432 882h116l-87 -121h-82zM181 810h128l95 -164h-108l-51 100l-50 -100h-107z" />
    <glyph glyph-name="uni1EA6" unicode="&#x1ea6;" horiz-adv-x="538" 
d="M178 810h183l156 -810h-152l-30 178h-128l-31 -178h-155zM319 280l-49 326l-48 -326h97zM345 1114h116l53 -121h-82zM205 1042h128l95 -164h-108l-51 100l-50 -100h-107z" />
    <glyph glyph-name="uni1EA7" unicode="&#x1ea7;" horiz-adv-x="466" 
d="M98 10q-30 20 -45.5 52.5t-15.5 67.5q0 67 33 110t79.5 67t123.5 52v54q0 31 -8.5 47t-30.5 16t-31 -14t-11 -40l-3 -40l-142 6q4 103 53 151.5t147 48.5q85 0 128 -47t43 -129v-269q0 -68 10 -143h-135q-4 29 -13 83q-12 -40 -40.5 -66.5t-71.5 -26.5q-40 0 -70 20z
M250.5 107q13.5 10 22.5 23v159q-47 -27 -72 -56t-25 -71q0 -31 12 -48t34 -17q15 0 28.5 10zM321 882h116l53 -121h-82zM181 810h128l95 -164h-108l-51 100l-50 -100h-107z" />
    <glyph glyph-name="uni1EA8" unicode="&#x1ea8;" horiz-adv-x="538" 
d="M178 810h183l156 -810h-152l-30 178h-128l-31 -178h-155zM319 280l-49 326l-48 -326h97zM397 1015q20 15 29.5 28.5t9.5 30.5q0 19 -12.5 29.5t-33.5 10.5q-25 0 -50 -9v65q36 14 80 14q51 0 82 -24.5t31 -71.5q0 -43 -24.5 -70.5t-67.5 -49.5zM205 1042h128l95 -164
h-108l-51 100l-50 -100h-107z" />
    <glyph glyph-name="uni1EA9" unicode="&#x1ea9;" horiz-adv-x="466" 
d="M98 10q-30 20 -45.5 52.5t-15.5 67.5q0 67 33 110t79.5 67t123.5 52v54q0 31 -8.5 47t-30.5 16t-31 -14t-11 -40l-3 -40l-142 6q4 103 53 151.5t147 48.5q85 0 128 -47t43 -129v-269q0 -68 10 -143h-135q-4 29 -13 83q-12 -40 -40.5 -66.5t-71.5 -26.5q-40 0 -70 20z
M250.5 107q13.5 10 22.5 23v159q-47 -27 -72 -56t-25 -71q0 -31 12 -48t34 -17q15 0 28.5 10zM373 783q20 15 29.5 28.5t9.5 30.5q0 19 -12.5 29.5t-33.5 10.5q-25 0 -50 -9v65q36 14 80 14q51 0 82 -24.5t31 -71.5q0 -43 -24.5 -70.5t-67.5 -49.5zM181 810h128l95 -164
h-108l-51 100l-50 -100h-107z" />
    <glyph glyph-name="uni1EAA" unicode="&#x1eaa;" horiz-adv-x="538" 
d="M178 810h183l156 -810h-152l-30 178h-128l-31 -178h-155zM319 280l-49 326l-48 -326h97zM205 1042h128l95 -164h-108l-51 100l-50 -100h-107zM315.5 1097.5q-16.5 6.5 -37.5 19.5q-34 21 -54 21q-36 0 -36 -41h-74q-2 135 87 135q17 0 32.5 -6t34.5 -18q18 -10 31 -15.5
t27 -5.5q31 0 31 39h69q0 -60 -15.5 -97.5t-60.5 -37.5q-18 0 -34.5 6.5z" />
    <glyph glyph-name="uni1EAB" unicode="&#x1eab;" horiz-adv-x="466" 
d="M98 10q-30 20 -45.5 52.5t-15.5 67.5q0 67 33 110t79.5 67t123.5 52v54q0 31 -8.5 47t-30.5 16t-31 -14t-11 -40l-3 -40l-142 6q4 103 53 151.5t147 48.5q85 0 128 -47t43 -129v-269q0 -68 10 -143h-135q-4 29 -13 83q-12 -40 -40.5 -66.5t-71.5 -26.5q-40 0 -70 20z
M250.5 107q13.5 10 22.5 23v159q-47 -27 -72 -56t-25 -71q0 -31 12 -48t34 -17q15 0 28.5 10zM181 810h128l95 -164h-108l-51 100l-50 -100h-107zM291.5 865.5q-16.5 6.5 -37.5 19.5q-34 21 -54 21q-36 0 -36 -41h-74q-2 135 87 135q17 0 32.5 -6t34.5 -18q18 -10 31 -15.5
t27 -5.5q31 0 31 39h69q0 -60 -15.5 -97.5t-60.5 -37.5q-18 0 -34.5 6.5z" />
    <glyph glyph-name="uni1EAC" unicode="&#x1eac;" horiz-adv-x="538" 
d="M178 810h183l156 -810h-152l-30 178h-128l-31 -178h-155zM319 280l-49 326l-48 -326h97zM205 1042h128l95 -164h-108l-51 100l-50 -100h-107zM203 -68h132v-133h-132v133z" />
    <glyph glyph-name="uni1EAD" unicode="&#x1ead;" horiz-adv-x="466" 
d="M98 10q-30 20 -45.5 52.5t-15.5 67.5q0 67 33 110t79.5 67t123.5 52v54q0 31 -8.5 47t-30.5 16t-31 -14t-11 -40l-3 -40l-142 6q4 103 53 151.5t147 48.5q85 0 128 -47t43 -129v-269q0 -68 10 -143h-135q-4 29 -13 83q-12 -40 -40.5 -66.5t-71.5 -26.5q-40 0 -70 20z
M250.5 107q13.5 10 22.5 23v159q-47 -27 -72 -56t-25 -71q0 -31 12 -48t34 -17q15 0 28.5 10zM167 -68h132v-133h-132v133zM181 810h128l95 -164h-108l-51 100l-50 -100h-107z" />
    <glyph glyph-name="uni1EAE" unicode="&#x1eae;" horiz-adv-x="538" 
d="M178 810h183l156 -810h-152l-30 178h-128l-31 -178h-155zM319 280l-49 326l-48 -326h97zM276 1176h127l-109 -116h-88zM158.5 907q-40.5 40 -40.5 112h86q0 -38 15 -55.5t51 -17.5q35 0 50.5 18t15.5 55h85q0 -72 -40 -112t-111 -40t-111.5 40z" />
    <glyph glyph-name="uni1EAF" unicode="&#x1eaf;" horiz-adv-x="466" 
d="M98 10q-30 20 -45.5 52.5t-15.5 67.5q0 67 33 110t79.5 67t123.5 52v54q0 31 -8.5 47t-30.5 16t-31 -14t-11 -40l-3 -40l-142 6q4 103 53 151.5t147 48.5q85 0 128 -47t43 -129v-269q0 -68 10 -143h-135q-4 29 -13 83q-12 -40 -40.5 -66.5t-71.5 -26.5q-40 0 -70 20z
M250.5 107q13.5 10 22.5 23v159q-47 -27 -72 -56t-25 -71q0 -31 12 -48t34 -17q15 0 28.5 10zM252 944h127l-109 -116h-88zM134.5 675q-40.5 40 -40.5 112h86q0 -38 15 -55.5t51 -17.5q35 0 50.5 18t15.5 55h85q0 -72 -40 -112t-111 -40t-111.5 40z" />
    <glyph glyph-name="uni1EB0" unicode="&#x1eb0;" horiz-adv-x="538" 
d="M178 810h183l156 -810h-152l-30 178h-128l-31 -178h-155zM319 280l-49 326l-48 -326h97zM135 1176h127l70 -116h-87zM158.5 907q-40.5 40 -40.5 112h86q0 -38 15 -55.5t51 -17.5q35 0 50.5 18t15.5 55h85q0 -72 -40 -112t-111 -40t-111.5 40z" />
    <glyph glyph-name="uni1EB1" unicode="&#x1eb1;" horiz-adv-x="466" 
d="M98 10q-30 20 -45.5 52.5t-15.5 67.5q0 67 33 110t79.5 67t123.5 52v54q0 31 -8.5 47t-30.5 16t-31 -14t-11 -40l-3 -40l-142 6q4 103 53 151.5t147 48.5q85 0 128 -47t43 -129v-269q0 -68 10 -143h-135q-4 29 -13 83q-12 -40 -40.5 -66.5t-71.5 -26.5q-40 0 -70 20z
M250.5 107q13.5 10 22.5 23v159q-47 -27 -72 -56t-25 -71q0 -31 12 -48t34 -17q15 0 28.5 10zM111 944h127l70 -116h-87zM134.5 675q-40.5 40 -40.5 112h86q0 -38 15 -55.5t51 -17.5q35 0 50.5 18t15.5 55h85q0 -72 -40 -112t-111 -40t-111.5 40z" />
    <glyph glyph-name="uni1EB2" unicode="&#x1eb2;" horiz-adv-x="538" 
d="M178 810h183l156 -810h-152l-30 178h-128l-31 -178h-155zM319 280l-49 326l-48 -326h97zM238 1076q19 15 29 28.5t10 30.5q0 19 -13 29.5t-34 10.5q-25 0 -50 -9v65q36 14 81 14q50 0 81 -24.5t31 -71.5q0 -42 -24.5 -70.5t-67.5 -49.5zM158.5 914q-40.5 40 -40.5 112h86
q0 -38 15 -55.5t51 -17.5q35 0 50.5 18t15.5 55h85q0 -72 -40 -112t-111 -40t-111.5 40z" />
    <glyph glyph-name="uni1EB3" unicode="&#x1eb3;" horiz-adv-x="466" 
d="M98 10q-30 20 -45.5 52.5t-15.5 67.5q0 67 33 110t79.5 67t123.5 52v54q0 31 -8.5 47t-30.5 16t-31 -14t-11 -40l-3 -40l-142 6q4 103 53 151.5t147 48.5q85 0 128 -47t43 -129v-269q0 -68 10 -143h-135q-4 29 -13 83q-12 -40 -40.5 -66.5t-71.5 -26.5q-40 0 -70 20z
M250.5 107q13.5 10 22.5 23v159q-47 -27 -72 -56t-25 -71q0 -31 12 -48t34 -17q15 0 28.5 10zM214 844q19 15 29 28.5t10 30.5q0 19 -13 29.5t-34 10.5q-25 0 -50 -9v65q36 14 81 14q50 0 81 -24.5t31 -71.5q0 -42 -24.5 -70.5t-67.5 -49.5zM134.5 682q-40.5 40 -40.5 112
h86q0 -38 15 -55.5t51 -17.5q35 0 50.5 18t15.5 55h85q0 -72 -40 -112t-111 -40t-111.5 40z" />
    <glyph glyph-name="uni1EB4" unicode="&#x1eb4;" horiz-adv-x="538" 
d="M178 810h183l156 -810h-152l-30 178h-128l-31 -178h-155zM319 280l-49 326l-48 -326h97zM158.5 914q-40.5 40 -40.5 112h86q0 -38 15 -55.5t51 -17.5q35 0 50.5 18t15.5 55h85q0 -72 -40 -112t-111 -40t-111.5 40zM315.5 1085.5q-16.5 6.5 -37.5 19.5q-34 21 -54 21
q-36 0 -36 -41h-74q-2 135 87 135q17 0 32.5 -6t34.5 -18q18 -10 31 -15.5t27 -5.5q31 0 31 39h69q0 -60 -15.5 -97.5t-60.5 -37.5q-18 0 -34.5 6.5z" />
    <glyph glyph-name="uni1EB5" unicode="&#x1eb5;" horiz-adv-x="466" 
d="M98 10q-30 20 -45.5 52.5t-15.5 67.5q0 67 33 110t79.5 67t123.5 52v54q0 31 -8.5 47t-30.5 16t-31 -14t-11 -40l-3 -40l-142 6q4 103 53 151.5t147 48.5q85 0 128 -47t43 -129v-269q0 -68 10 -143h-135q-4 29 -13 83q-12 -40 -40.5 -66.5t-71.5 -26.5q-40 0 -70 20z
M250.5 107q13.5 10 22.5 23v159q-47 -27 -72 -56t-25 -71q0 -31 12 -48t34 -17q15 0 28.5 10zM134.5 682q-40.5 40 -40.5 112h86q0 -38 15 -55.5t51 -17.5q35 0 50.5 18t15.5 55h85q0 -72 -40 -112t-111 -40t-111.5 40zM291.5 853.5q-16.5 6.5 -37.5 19.5q-34 21 -54 21
q-36 0 -36 -41h-74q-2 135 87 135q17 0 32.5 -6t34.5 -18q18 -10 31 -15.5t27 -5.5q31 0 31 39h69q0 -60 -15.5 -97.5t-60.5 -37.5q-18 0 -34.5 6.5z" />
    <glyph glyph-name="uni1EB6" unicode="&#x1eb6;" horiz-adv-x="538" 
d="M178 810h183l156 -810h-152l-30 178h-128l-31 -178h-155zM319 280l-49 326l-48 -326h97zM203 -68h132v-133h-132v133zM158.5 914q-40.5 40 -40.5 112h86q0 -38 15 -55.5t51 -17.5q35 0 50.5 18t15.5 55h85q0 -72 -40 -112t-111 -40t-111.5 40z" />
    <glyph glyph-name="uni1EB7" unicode="&#x1eb7;" horiz-adv-x="466" 
d="M98 10q-30 20 -45.5 52.5t-15.5 67.5q0 67 33 110t79.5 67t123.5 52v54q0 31 -8.5 47t-30.5 16t-31 -14t-11 -40l-3 -40l-142 6q4 103 53 151.5t147 48.5q85 0 128 -47t43 -129v-269q0 -68 10 -143h-135q-4 29 -13 83q-12 -40 -40.5 -66.5t-71.5 -26.5q-40 0 -70 20z
M250.5 107q13.5 10 22.5 23v159q-47 -27 -72 -56t-25 -71q0 -31 12 -48t34 -17q15 0 28.5 10zM167 -68h132v-133h-132v133zM134.5 682q-40.5 40 -40.5 112h86q0 -38 15 -55.5t51 -17.5q35 0 50.5 18t15.5 55h85q0 -72 -40 -112t-111 -40t-111.5 40z" />
    <glyph glyph-name="uni1EB8" unicode="&#x1eb8;" horiz-adv-x="439" 
d="M61 810h353v-114h-189v-215h146v-115h-146v-254h191v-112h-355v810zM154 -68h132v-133h-132v133z" />
    <glyph glyph-name="uni1EB9" unicode="&#x1eb9;" horiz-adv-x="459" 
d="M89.5 42q-49.5 52 -49.5 150v194q0 98 50 150t144 52q97 0 142 -52t45 -154v-101h-231v-112q0 -37 11.5 -54t33.5 -17q45 0 45 65v56h140v-50q0 -87 -48 -133t-138 -46q-95 0 -144.5 52zM280 353v56q0 38 -11 54.5t-35 16.5q-23 0 -33.5 -18t-10.5 -64v-45h90zM164 -68
h132v-133h-132v133z" />
    <glyph glyph-name="uni1EBA" unicode="&#x1eba;" horiz-adv-x="439" 
d="M61 810h353v-114h-189v-215h146v-115h-146v-254h191v-112h-355v810zM190 910q38 18 54 30.5t16 32.5q0 36 -58 36q-31 0 -59 -7v65q50 13 97 13q52 0 86 -24t34 -73q0 -47 -31.5 -74.5t-88.5 -47.5z" />
    <glyph glyph-name="uni1EBB" unicode="&#x1ebb;" horiz-adv-x="459" 
d="M89.5 42q-49.5 52 -49.5 150v194q0 98 50 150t144 52q97 0 142 -52t45 -154v-101h-231v-112q0 -37 11.5 -54t33.5 -17q45 0 45 65v56h140v-50q0 -87 -48 -133t-138 -46q-95 0 -144.5 52zM280 353v56q0 38 -11 54.5t-35 16.5q-23 0 -33.5 -18t-10.5 -64v-45h90zM182 678
q38 18 54 30.5t16 32.5q0 36 -58 36q-31 0 -59 -7v65q50 13 97 13q52 0 86 -24t34 -73q0 -47 -31.5 -74.5t-88.5 -47.5z" />
    <glyph glyph-name="uni1EBC" unicode="&#x1ebc;" horiz-adv-x="439" 
d="M61 810h353v-114h-189v-215h146v-115h-146v-254h191v-112h-355v810zM285.5 913.5q-16.5 6.5 -37.5 19.5q-34 21 -54 21q-36 0 -36 -41h-74q-2 135 87 135q17 0 32.5 -6t34.5 -18q18 -10 31 -15.5t27 -5.5q31 0 31 39h69q0 -60 -15.5 -97.5t-60.5 -37.5q-18 0 -34.5 6.5z
" />
    <glyph glyph-name="uni1EBD" unicode="&#x1ebd;" horiz-adv-x="459" 
d="M89.5 42q-49.5 52 -49.5 150v194q0 98 50 150t144 52q97 0 142 -52t45 -154v-101h-231v-112q0 -37 11.5 -54t33.5 -17q45 0 45 65v56h140v-50q0 -87 -48 -133t-138 -46q-95 0 -144.5 52zM280 353v56q0 38 -11 54.5t-35 16.5q-23 0 -33.5 -18t-10.5 -64v-45h90z
M277.5 681.5q-16.5 6.5 -37.5 19.5q-34 21 -54 21q-36 0 -36 -41h-74q-2 135 87 135q17 0 32.5 -6t34.5 -18q18 -10 31 -15.5t27 -5.5q31 0 31 39h69q0 -60 -15.5 -97.5t-60.5 -37.5q-18 0 -34.5 6.5z" />
    <glyph glyph-name="uni1EBE" unicode="&#x1ebe;" horiz-adv-x="439" 
d="M61 810h353v-114h-189v-215h146v-115h-146v-254h191v-112h-355v810zM426 1114h116l-87 -121h-82zM175 1042h128l95 -164h-108l-51 100l-50 -100h-107z" />
    <glyph glyph-name="uni1EBF" unicode="&#x1ebf;" horiz-adv-x="459" 
d="M89.5 42q-49.5 52 -49.5 150v194q0 98 50 150t144 52q97 0 142 -52t45 -154v-101h-231v-112q0 -37 11.5 -54t33.5 -17q45 0 45 65v56h140v-50q0 -87 -48 -133t-138 -46q-95 0 -144.5 52zM280 353v56q0 38 -11 54.5t-35 16.5q-23 0 -33.5 -18t-10.5 -64v-45h90zM418 882
h116l-87 -121h-82zM167 810h128l95 -164h-108l-51 100l-50 -100h-107z" />
    <glyph glyph-name="uni1EC0" unicode="&#x1ec0;" horiz-adv-x="439" 
d="M61 810h353v-114h-189v-215h146v-115h-146v-254h191v-112h-355v810zM315 1114h116l53 -121h-82zM175 1042h128l95 -164h-108l-51 100l-50 -100h-107z" />
    <glyph glyph-name="uni1EC1" unicode="&#x1ec1;" horiz-adv-x="459" 
d="M89.5 42q-49.5 52 -49.5 150v194q0 98 50 150t144 52q97 0 142 -52t45 -154v-101h-231v-112q0 -37 11.5 -54t33.5 -17q45 0 45 65v56h140v-50q0 -87 -48 -133t-138 -46q-95 0 -144.5 52zM280 353v56q0 38 -11 54.5t-35 16.5q-23 0 -33.5 -18t-10.5 -64v-45h90zM307 882
h116l53 -121h-82zM167 810h128l95 -164h-108l-51 100l-50 -100h-107z" />
    <glyph glyph-name="uni1EC2" unicode="&#x1ec2;" horiz-adv-x="439" 
d="M61 810h353v-114h-189v-215h146v-115h-146v-254h191v-112h-355v810zM367 1015q20 15 29.5 28.5t9.5 30.5q0 19 -12.5 29.5t-33.5 10.5q-25 0 -50 -9v65q36 14 80 14q51 0 82 -24.5t31 -71.5q0 -43 -24.5 -70.5t-67.5 -49.5zM175 1042h128l95 -164h-108l-51 100l-50 -100
h-107z" />
    <glyph glyph-name="uni1EC3" unicode="&#x1ec3;" horiz-adv-x="459" 
d="M89.5 42q-49.5 52 -49.5 150v194q0 98 50 150t144 52q97 0 142 -52t45 -154v-101h-231v-112q0 -37 11.5 -54t33.5 -17q45 0 45 65v56h140v-50q0 -87 -48 -133t-138 -46q-95 0 -144.5 52zM280 353v56q0 38 -11 54.5t-35 16.5q-23 0 -33.5 -18t-10.5 -64v-45h90zM359 783
q20 15 29.5 28.5t9.5 30.5q0 19 -12.5 29.5t-33.5 10.5q-25 0 -50 -9v65q36 14 80 14q51 0 82 -24.5t31 -71.5q0 -43 -24.5 -70.5t-67.5 -49.5zM167 810h128l95 -164h-108l-51 100l-50 -100h-107z" />
    <glyph glyph-name="uni1EC4" unicode="&#x1ec4;" horiz-adv-x="439" 
d="M61 810h353v-114h-189v-215h146v-115h-146v-254h191v-112h-355v810zM175 1042h128l95 -164h-108l-51 100l-50 -100h-107zM285.5 1097.5q-16.5 6.5 -37.5 19.5q-34 21 -54 21q-36 0 -36 -41h-74q-2 135 87 135q17 0 32.5 -6t34.5 -18q18 -10 31 -15.5t27 -5.5q31 0 31 39
h69q0 -60 -15.5 -97.5t-60.5 -37.5q-18 0 -34.5 6.5z" />
    <glyph glyph-name="uni1EC5" unicode="&#x1ec5;" horiz-adv-x="459" 
d="M89.5 42q-49.5 52 -49.5 150v194q0 98 50 150t144 52q97 0 142 -52t45 -154v-101h-231v-112q0 -37 11.5 -54t33.5 -17q45 0 45 65v56h140v-50q0 -87 -48 -133t-138 -46q-95 0 -144.5 52zM280 353v56q0 38 -11 54.5t-35 16.5q-23 0 -33.5 -18t-10.5 -64v-45h90zM167 810
h128l95 -164h-108l-51 100l-50 -100h-107zM277.5 865.5q-16.5 6.5 -37.5 19.5q-34 21 -54 21q-36 0 -36 -41h-74q-2 135 87 135q17 0 32.5 -6t34.5 -18q18 -10 31 -15.5t27 -5.5q31 0 31 39h69q0 -60 -15.5 -97.5t-60.5 -37.5q-18 0 -34.5 6.5z" />
    <glyph glyph-name="uni1EC6" unicode="&#x1ec6;" horiz-adv-x="439" 
d="M61 810h353v-114h-189v-215h146v-115h-146v-254h191v-112h-355v810zM175 1042h128l95 -164h-108l-51 100l-50 -100h-107zM154 -68h132v-133h-132v133z" />
    <glyph glyph-name="uni1EC7" unicode="&#x1ec7;" horiz-adv-x="459" 
d="M89.5 42q-49.5 52 -49.5 150v194q0 98 50 150t144 52q97 0 142 -52t45 -154v-101h-231v-112q0 -37 11.5 -54t33.5 -17q45 0 45 65v56h140v-50q0 -87 -48 -133t-138 -46q-95 0 -144.5 52zM280 353v56q0 38 -11 54.5t-35 16.5q-23 0 -33.5 -18t-10.5 -64v-45h90zM164 -68
h132v-133h-132v133zM167 810h128l95 -164h-108l-51 100l-50 -100h-107z" />
    <glyph glyph-name="uni1EC8" unicode="&#x1ec8;" horiz-adv-x="289" 
d="M63 810h164v-810h-164v810zM95 910q38 18 54 30.5t16 32.5q0 36 -58 36q-31 0 -59 -7v65q50 13 97 13q52 0 86 -24t34 -73q0 -47 -31.5 -74.5t-88.5 -47.5z" />
    <glyph glyph-name="uni1EC9" unicode="&#x1ec9;" horiz-adv-x="268" 
d="M60 578h151v-578h-151v578zM86 678q38 18 54 30.5t16 32.5q0 36 -58 36q-31 0 -59 -7v65q50 13 97 13q52 0 86 -24t34 -73q0 -47 -31.5 -74.5t-88.5 -47.5z" />
    <glyph glyph-name="uni1ECA" unicode="&#x1eca;" horiz-adv-x="289" 
d="M63 810h164v-810h-164v810zM79 -68h132v-133h-132v133z" />
    <glyph glyph-name="uni1ECB" unicode="&#x1ecb;" horiz-adv-x="258" 
d="M53 786h152v-113h-152v113zM54 578h151v-578h-151v578zM63 -68h132v-133h-132v133z" />
    <glyph glyph-name="uni1ECC" unicode="&#x1ecc;" horiz-adv-x="576" 
d="M104 56.5q-55 67.5 -55 198.5v302q0 131 55 197t184 66q128 0 183.5 -66.5t55.5 -196.5v-303q0 -130 -55.5 -197.5t-183.5 -67.5q-129 0 -184 67.5zM344.5 135.5q14.5 28.5 14.5 78.5v383q0 50 -14.5 77.5t-56.5 27.5t-56.5 -27.5t-14.5 -77.5v-383q0 -51 14 -79t57 -28
q42 0 56.5 28.5zM222 -68h132v-133h-132v133z" />
    <glyph glyph-name="uni1ECD" unicode="&#x1ecd;" 
d="M90.5 40q-50.5 50 -50.5 145v208q0 95 50.5 145t144.5 50t144.5 -50t50.5 -145v-208q0 -95 -50.5 -145t-144.5 -50t-144.5 50zM271.5 112.5q9.5 20.5 9.5 61.5v229q0 41 -9.5 62t-35.5 21q-27 0 -37 -21.5t-10 -61.5v-229q0 -40 10 -61t37 -21q26 0 35.5 20.5zM170 -68
h132v-133h-132v133z" />
    <glyph glyph-name="uni1ECE" unicode="&#x1ece;" horiz-adv-x="576" 
d="M104 56.5q-55 67.5 -55 198.5v302q0 131 55 197t184 66q128 0 183.5 -66.5t55.5 -196.5v-303q0 -130 -55.5 -197.5t-183.5 -67.5q-129 0 -184 67.5zM344.5 135.5q14.5 28.5 14.5 78.5v383q0 50 -14.5 77.5t-56.5 27.5t-56.5 -27.5t-14.5 -77.5v-383q0 -51 14 -79t57 -28
q42 0 56.5 28.5zM238 910q38 18 54 30.5t16 32.5q0 36 -58 36q-31 0 -59 -7v65q50 13 97 13q52 0 86 -24t34 -73q0 -47 -31.5 -74.5t-88.5 -47.5z" />
    <glyph glyph-name="uni1ECF" unicode="&#x1ecf;" 
d="M90.5 40q-50.5 50 -50.5 145v208q0 95 50.5 145t144.5 50t144.5 -50t50.5 -145v-208q0 -95 -50.5 -145t-144.5 -50t-144.5 50zM271.5 112.5q9.5 20.5 9.5 61.5v229q0 41 -9.5 62t-35.5 21q-27 0 -37 -21.5t-10 -61.5v-229q0 -40 10 -61t37 -21q26 0 35.5 20.5zM185 678
q38 18 54 30.5t16 32.5q0 36 -58 36q-31 0 -59 -7v65q50 13 97 13q52 0 86 -24t34 -73q0 -47 -31.5 -74.5t-88.5 -47.5z" />
    <glyph glyph-name="uni1ED0" unicode="&#x1ed0;" horiz-adv-x="576" 
d="M104 56.5q-55 67.5 -55 198.5v302q0 131 55 197t184 66q128 0 183.5 -66.5t55.5 -196.5v-303q0 -130 -55.5 -197.5t-183.5 -67.5q-129 0 -184 67.5zM344.5 135.5q14.5 28.5 14.5 78.5v383q0 50 -14.5 77.5t-56.5 27.5t-56.5 -27.5t-14.5 -77.5v-383q0 -51 14 -79t57 -28
q42 0 56.5 28.5zM474 1114h116l-87 -121h-82zM223 1042h128l95 -164h-108l-51 100l-50 -100h-107z" />
    <glyph glyph-name="uni1ED1" unicode="&#x1ed1;" 
d="M90.5 40q-50.5 50 -50.5 145v208q0 95 50.5 145t144.5 50t144.5 -50t50.5 -145v-208q0 -95 -50.5 -145t-144.5 -50t-144.5 50zM271.5 112.5q9.5 20.5 9.5 61.5v229q0 41 -9.5 62t-35.5 21q-27 0 -37 -21.5t-10 -61.5v-229q0 -40 10 -61t37 -21q26 0 35.5 20.5zM421 882
h116l-87 -121h-82zM170 810h128l95 -164h-108l-51 100l-50 -100h-107z" />
    <glyph glyph-name="uni1ED2" unicode="&#x1ed2;" horiz-adv-x="576" 
d="M104 56.5q-55 67.5 -55 198.5v302q0 131 55 197t184 66q128 0 183.5 -66.5t55.5 -196.5v-303q0 -130 -55.5 -197.5t-183.5 -67.5q-129 0 -184 67.5zM344.5 135.5q14.5 28.5 14.5 78.5v383q0 50 -14.5 77.5t-56.5 27.5t-56.5 -27.5t-14.5 -77.5v-383q0 -51 14 -79t57 -28
q42 0 56.5 28.5zM363 1114h116l53 -121h-82zM223 1042h128l95 -164h-108l-51 100l-50 -100h-107z" />
    <glyph glyph-name="uni1ED3" unicode="&#x1ed3;" 
d="M90.5 40q-50.5 50 -50.5 145v208q0 95 50.5 145t144.5 50t144.5 -50t50.5 -145v-208q0 -95 -50.5 -145t-144.5 -50t-144.5 50zM271.5 112.5q9.5 20.5 9.5 61.5v229q0 41 -9.5 62t-35.5 21q-27 0 -37 -21.5t-10 -61.5v-229q0 -40 10 -61t37 -21q26 0 35.5 20.5zM310 882
h116l53 -121h-82zM170 810h128l95 -164h-108l-51 100l-50 -100h-107z" />
    <glyph glyph-name="uni1ED4" unicode="&#x1ed4;" horiz-adv-x="576" 
d="M104 56.5q-55 67.5 -55 198.5v302q0 131 55 197t184 66q128 0 183.5 -66.5t55.5 -196.5v-303q0 -130 -55.5 -197.5t-183.5 -67.5q-129 0 -184 67.5zM344.5 135.5q14.5 28.5 14.5 78.5v383q0 50 -14.5 77.5t-56.5 27.5t-56.5 -27.5t-14.5 -77.5v-383q0 -51 14 -79t57 -28
q42 0 56.5 28.5zM415 1015q20 15 29.5 28.5t9.5 30.5q0 19 -12.5 29.5t-33.5 10.5q-25 0 -50 -9v65q36 14 80 14q51 0 82 -24.5t31 -71.5q0 -43 -24.5 -70.5t-67.5 -49.5zM223 1042h128l95 -164h-108l-51 100l-50 -100h-107z" />
    <glyph glyph-name="uni1ED5" unicode="&#x1ed5;" 
d="M90.5 40q-50.5 50 -50.5 145v208q0 95 50.5 145t144.5 50t144.5 -50t50.5 -145v-208q0 -95 -50.5 -145t-144.5 -50t-144.5 50zM271.5 112.5q9.5 20.5 9.5 61.5v229q0 41 -9.5 62t-35.5 21q-27 0 -37 -21.5t-10 -61.5v-229q0 -40 10 -61t37 -21q26 0 35.5 20.5zM362 783
q20 15 29.5 28.5t9.5 30.5q0 19 -12.5 29.5t-33.5 10.5q-25 0 -50 -9v65q36 14 80 14q51 0 82 -24.5t31 -71.5q0 -43 -24.5 -70.5t-67.5 -49.5zM170 810h128l95 -164h-108l-51 100l-50 -100h-107z" />
    <glyph glyph-name="uni1ED6" unicode="&#x1ed6;" horiz-adv-x="576" 
d="M104 56.5q-55 67.5 -55 198.5v302q0 131 55 197t184 66q128 0 183.5 -66.5t55.5 -196.5v-303q0 -130 -55.5 -197.5t-183.5 -67.5q-129 0 -184 67.5zM344.5 135.5q14.5 28.5 14.5 78.5v383q0 50 -14.5 77.5t-56.5 27.5t-56.5 -27.5t-14.5 -77.5v-383q0 -51 14 -79t57 -28
q42 0 56.5 28.5zM223 1042h128l95 -164h-108l-51 100l-50 -100h-107zM333.5 1097.5q-16.5 6.5 -37.5 19.5q-34 21 -54 21q-36 0 -36 -41h-74q-2 135 87 135q17 0 32.5 -6t34.5 -18q18 -10 31 -15.5t27 -5.5q31 0 31 39h69q0 -60 -15.5 -97.5t-60.5 -37.5q-18 0 -34.5 6.5z
" />
    <glyph glyph-name="uni1ED7" unicode="&#x1ed7;" 
d="M90.5 40q-50.5 50 -50.5 145v208q0 95 50.5 145t144.5 50t144.5 -50t50.5 -145v-208q0 -95 -50.5 -145t-144.5 -50t-144.5 50zM271.5 112.5q9.5 20.5 9.5 61.5v229q0 41 -9.5 62t-35.5 21q-27 0 -37 -21.5t-10 -61.5v-229q0 -40 10 -61t37 -21q26 0 35.5 20.5zM170 810
h128l95 -164h-108l-51 100l-50 -100h-107zM280.5 865.5q-16.5 6.5 -37.5 19.5q-34 21 -54 21q-36 0 -36 -41h-74q-2 135 87 135q17 0 32.5 -6t34.5 -18q18 -10 31 -15.5t27 -5.5q31 0 31 39h69q0 -60 -15.5 -97.5t-60.5 -37.5q-18 0 -34.5 6.5z" />
    <glyph glyph-name="uni1ED8" unicode="&#x1ed8;" horiz-adv-x="576" 
d="M104 56.5q-55 67.5 -55 198.5v302q0 131 55 197t184 66q128 0 183.5 -66.5t55.5 -196.5v-303q0 -130 -55.5 -197.5t-183.5 -67.5q-129 0 -184 67.5zM344.5 135.5q14.5 28.5 14.5 78.5v383q0 50 -14.5 77.5t-56.5 27.5t-56.5 -27.5t-14.5 -77.5v-383q0 -51 14 -79t57 -28
q42 0 56.5 28.5zM223 1042h128l95 -164h-108l-51 100l-50 -100h-107zM222 -68h132v-133h-132v133z" />
    <glyph glyph-name="uni1ED9" unicode="&#x1ed9;" 
d="M90.5 40q-50.5 50 -50.5 145v208q0 95 50.5 145t144.5 50t144.5 -50t50.5 -145v-208q0 -95 -50.5 -145t-144.5 -50t-144.5 50zM271.5 112.5q9.5 20.5 9.5 61.5v229q0 41 -9.5 62t-35.5 21q-27 0 -37 -21.5t-10 -61.5v-229q0 -40 10 -61t37 -21q26 0 35.5 20.5zM170 -68
h132v-133h-132v133zM170 810h128l95 -164h-108l-51 100l-50 -100h-107z" />
    <glyph glyph-name="uni1EDA" unicode="&#x1eda;" horiz-adv-x="576" 
d="M104 56.5q-55 67.5 -55 198.5v302q0 131 55 197t184 66q128 0 183.5 -66.5t55.5 -196.5v-303q0 -130 -55.5 -197.5t-183.5 -67.5q-129 0 -184 67.5zM344.5 135.5q14.5 28.5 14.5 78.5v383q0 50 -14.5 77.5t-56.5 27.5t-56.5 -27.5t-14.5 -77.5v-383q0 -51 14 -79t57 -28
q42 0 56.5 28.5zM338 810h20q29 0 41.5 20t12.5 63h107q0 -72 -43 -109t-117 -37h-21v63zM301 1071h154l-123 -201h-92z" />
    <glyph glyph-name="uni1EDB" unicode="&#x1edb;" 
d="M90.5 40q-50.5 50 -50.5 145v208q0 95 50.5 145t144.5 50t144.5 -50t50.5 -145v-208q0 -95 -50.5 -145t-144.5 -50t-144.5 50zM271.5 112.5q9.5 20.5 9.5 61.5v229q0 41 -9.5 62t-35.5 21q-27 0 -37 -21.5t-10 -61.5v-229q0 -40 10 -61t37 -21q26 0 35.5 20.5zM259 578
h10q29 0 41.5 20t12.5 63h107q0 -72 -43 -109t-117 -37h-11v63zM248 863h154l-123 -201h-92z" />
    <glyph glyph-name="uni1EDC" unicode="&#x1edc;" horiz-adv-x="576" 
d="M104 56.5q-55 67.5 -55 198.5v302q0 131 55 197t184 66q128 0 183.5 -66.5t55.5 -196.5v-303q0 -130 -55.5 -197.5t-183.5 -67.5q-129 0 -184 67.5zM344.5 135.5q14.5 28.5 14.5 78.5v383q0 50 -14.5 77.5t-56.5 27.5t-56.5 -27.5t-14.5 -77.5v-383q0 -51 14 -79t57 -28
q42 0 56.5 28.5zM338 810h20q29 0 41.5 20t12.5 63h107q0 -72 -43 -109t-117 -37h-21v63zM121 1071h155l60 -201h-91z" />
    <glyph glyph-name="uni1EDD" unicode="&#x1edd;" 
d="M90.5 40q-50.5 50 -50.5 145v208q0 95 50.5 145t144.5 50t144.5 -50t50.5 -145v-208q0 -95 -50.5 -145t-144.5 -50t-144.5 50zM271.5 112.5q9.5 20.5 9.5 61.5v229q0 41 -9.5 62t-35.5 21q-27 0 -37 -21.5t-10 -61.5v-229q0 -40 10 -61t37 -21q26 0 35.5 20.5zM259 578
h10q29 0 41.5 20t12.5 63h107q0 -72 -43 -109t-117 -37h-11v63zM68 863h155l60 -201h-91z" />
    <glyph glyph-name="uni1EDE" unicode="&#x1ede;" horiz-adv-x="576" 
d="M104 56.5q-55 67.5 -55 198.5v302q0 131 55 197t184 66q128 0 183.5 -66.5t55.5 -196.5v-303q0 -130 -55.5 -197.5t-183.5 -67.5q-129 0 -184 67.5zM344.5 135.5q14.5 28.5 14.5 78.5v383q0 50 -14.5 77.5t-56.5 27.5t-56.5 -27.5t-14.5 -77.5v-383q0 -51 14 -79t57 -28
q42 0 56.5 28.5zM338 810h20q29 0 41.5 20t12.5 63h107q0 -72 -43 -109t-117 -37h-21v63zM238 910q38 18 54 30.5t16 32.5q0 36 -58 36q-31 0 -59 -7v65q50 13 97 13q52 0 86 -24t34 -73q0 -47 -31.5 -74.5t-88.5 -47.5z" />
    <glyph glyph-name="uni1EDF" unicode="&#x1edf;" 
d="M90.5 40q-50.5 50 -50.5 145v208q0 95 50.5 145t144.5 50t144.5 -50t50.5 -145v-208q0 -95 -50.5 -145t-144.5 -50t-144.5 50zM271.5 112.5q9.5 20.5 9.5 61.5v229q0 41 -9.5 62t-35.5 21q-27 0 -37 -21.5t-10 -61.5v-229q0 -40 10 -61t37 -21q26 0 35.5 20.5zM259 578
h10q29 0 41.5 20t12.5 63h107q0 -72 -43 -109t-117 -37h-11v63zM185 702q38 18 54 30.5t16 32.5q0 36 -58 36q-31 0 -59 -7v65q50 13 97 13q52 0 86 -24t34 -73q0 -47 -31.5 -74.5t-88.5 -47.5z" />
    <glyph glyph-name="uni1EE0" unicode="&#x1ee0;" horiz-adv-x="576" 
d="M104 56.5q-55 67.5 -55 198.5v302q0 131 55 197t184 66q128 0 183.5 -66.5t55.5 -196.5v-303q0 -130 -55.5 -197.5t-183.5 -67.5q-129 0 -184 67.5zM344.5 135.5q14.5 28.5 14.5 78.5v383q0 50 -14.5 77.5t-56.5 27.5t-56.5 -27.5t-14.5 -77.5v-383q0 -51 14 -79t57 -28
q42 0 56.5 28.5zM338 810h20q29 0 41.5 20t12.5 63h107q0 -72 -43 -109t-117 -37h-21v63zM333.5 913.5q-16.5 6.5 -37.5 19.5q-34 21 -54 21q-36 0 -36 -41h-74q-2 135 87 135q17 0 32.5 -6t34.5 -18q18 -10 31 -15.5t27 -5.5q31 0 31 39h69q0 -60 -15.5 -97.5t-60.5 -37.5
q-18 0 -34.5 6.5z" />
    <glyph glyph-name="uni1EE1" unicode="&#x1ee1;" 
d="M90.5 40q-50.5 50 -50.5 145v208q0 95 50.5 145t144.5 50t144.5 -50t50.5 -145v-208q0 -95 -50.5 -145t-144.5 -50t-144.5 50zM271.5 112.5q9.5 20.5 9.5 61.5v229q0 41 -9.5 62t-35.5 21q-27 0 -37 -21.5t-10 -61.5v-229q0 -40 10 -61t37 -21q26 0 35.5 20.5zM259 578
h10q29 0 41.5 20t12.5 63h107q0 -72 -43 -109t-117 -37h-11v63zM280.5 705.5q-16.5 6.5 -37.5 19.5q-34 21 -54 21q-36 0 -36 -41h-74q-2 135 87 135q17 0 32.5 -6t34.5 -18q18 -10 31 -15.5t27 -5.5q31 0 31 39h69q0 -60 -15.5 -97.5t-60.5 -37.5q-18 0 -34.5 6.5z" />
    <glyph glyph-name="uni1EE2" unicode="&#x1ee2;" horiz-adv-x="576" 
d="M104 56.5q-55 67.5 -55 198.5v302q0 131 55 197t184 66q128 0 183.5 -66.5t55.5 -196.5v-303q0 -130 -55.5 -197.5t-183.5 -67.5q-129 0 -184 67.5zM344.5 135.5q14.5 28.5 14.5 78.5v383q0 50 -14.5 77.5t-56.5 27.5t-56.5 -27.5t-14.5 -77.5v-383q0 -51 14 -79t57 -28
q42 0 56.5 28.5zM338 810h20q29 0 41.5 20t12.5 63h107q0 -72 -43 -109t-117 -37h-21v63zM222 -68h132v-133h-132v133z" />
    <glyph glyph-name="uni1EE3" unicode="&#x1ee3;" 
d="M90.5 40q-50.5 50 -50.5 145v208q0 95 50.5 145t144.5 50t144.5 -50t50.5 -145v-208q0 -95 -50.5 -145t-144.5 -50t-144.5 50zM271.5 112.5q9.5 20.5 9.5 61.5v229q0 41 -9.5 62t-35.5 21q-27 0 -37 -21.5t-10 -61.5v-229q0 -40 10 -61t37 -21q26 0 35.5 20.5zM259 578
h10q29 0 41.5 20t12.5 63h107q0 -72 -43 -109t-117 -37h-11v63zM169 -68h132v-133h-132v133z" />
    <glyph glyph-name="uni1EE4" unicode="&#x1ee4;" horiz-adv-x="578" 
d="M148 19.5q-51 30.5 -72 88.5t-21 148v554h162v-577q0 -58 14 -91t58 -33t58 33t14 91v577h163v-554q0 -90 -21 -148t-72.5 -88.5t-141.5 -30.5t-141 30.5zM224 -68h132v-133h-132v133z" />
    <glyph glyph-name="uni1EE5" unicode="&#x1ee5;" horiz-adv-x="490" 
d="M72.5 27q-26.5 37 -26.5 95v456h151v-435q0 -24 8.5 -36t28.5 -12q21 0 53 22v461h151v-578h-151v54q-69 -64 -138 -64q-50 0 -76.5 37zM179 -68h132v-133h-132v133z" />
    <glyph glyph-name="uni1EE6" unicode="&#x1ee6;" horiz-adv-x="578" 
d="M148 19.5q-51 30.5 -72 88.5t-21 148v554h162v-577q0 -58 14 -91t58 -33t58 33t14 91v577h163v-554q0 -90 -21 -148t-72.5 -88.5t-141.5 -30.5t-141 30.5zM240 910q38 18 54 30.5t16 32.5q0 36 -58 36q-31 0 -59 -7v65q50 13 97 13q52 0 86 -24t34 -73q0 -47 -31.5 -74.5
t-88.5 -47.5z" />
    <glyph glyph-name="uni1EE7" unicode="&#x1ee7;" horiz-adv-x="490" 
d="M72.5 27q-26.5 37 -26.5 95v456h151v-435q0 -24 8.5 -36t28.5 -12q21 0 53 22v461h151v-578h-151v54q-69 -64 -138 -64q-50 0 -76.5 37zM195 678q38 18 54 30.5t16 32.5q0 36 -58 36q-31 0 -59 -7v65q50 13 97 13q52 0 86 -24t34 -73q0 -47 -31.5 -74.5t-88.5 -47.5z" />
    <glyph glyph-name="uni1EE8" unicode="&#x1ee8;" horiz-adv-x="578" 
d="M148 19.5q-51 30.5 -72 88.5t-21 148v554h162v-577q0 -58 14 -91t58 -33t58 33t14 91v577h163v-554q0 -90 -21 -148t-72.5 -88.5t-141.5 -30.5t-141 30.5zM422 810h10q29 0 41.5 20t12.5 63h107q0 -72 -43 -109t-117 -37h-11v63zM303 1071h154l-123 -201h-92z" />
    <glyph glyph-name="uni1EE9" unicode="&#x1ee9;" horiz-adv-x="490" 
d="M72.5 27q-26.5 37 -26.5 95v456h151v-435q0 -24 8.5 -36t28.5 -12q21 0 53 22v461h151v-578h-151v54q-69 -64 -138 -64q-50 0 -76.5 37zM330 578h10q29 0 41.5 20t12.5 63h107q0 -72 -43 -109t-117 -37h-11v63zM256 839h154l-123 -201h-92z" />
    <glyph glyph-name="uni1EEA" unicode="&#x1eea;" horiz-adv-x="578" 
d="M148 19.5q-51 30.5 -72 88.5t-21 148v554h162v-577q0 -58 14 -91t58 -33t58 33t14 91v577h163v-554q0 -90 -21 -148t-72.5 -88.5t-141.5 -30.5t-141 30.5zM422 810h10q29 0 41.5 20t12.5 63h107q0 -72 -43 -109t-117 -37h-11v63zM123 1071h155l60 -201h-91z" />
    <glyph glyph-name="uni1EEB" unicode="&#x1eeb;" horiz-adv-x="490" 
d="M72.5 27q-26.5 37 -26.5 95v456h151v-435q0 -24 8.5 -36t28.5 -12q21 0 53 22v461h151v-578h-151v54q-69 -64 -138 -64q-50 0 -76.5 37zM330 578h10q29 0 41.5 20t12.5 63h107q0 -72 -43 -109t-117 -37h-11v63zM76 839h155l60 -201h-91z" />
    <glyph glyph-name="uni1EEC" unicode="&#x1eec;" horiz-adv-x="578" 
d="M148 19.5q-51 30.5 -72 88.5t-21 148v554h162v-577q0 -58 14 -91t58 -33t58 33t14 91v577h163v-554q0 -90 -21 -148t-72.5 -88.5t-141.5 -30.5t-141 30.5zM422 810h10q29 0 41.5 20t12.5 63h107q0 -72 -43 -109t-117 -37h-11v63zM240 910q38 18 54 30.5t16 32.5
q0 36 -58 36q-31 0 -59 -7v65q50 13 97 13q52 0 86 -24t34 -73q0 -47 -31.5 -74.5t-88.5 -47.5z" />
    <glyph glyph-name="uni1EED" unicode="&#x1eed;" horiz-adv-x="490" 
d="M72.5 27q-26.5 37 -26.5 95v456h151v-435q0 -24 8.5 -36t28.5 -12q21 0 53 22v461h151v-578h-151v54q-69 -64 -138 -64q-50 0 -76.5 37zM330 578h10q29 0 41.5 20t12.5 63h107q0 -72 -43 -109t-117 -37h-11v63zM193 678q38 18 54 30.5t16 32.5q0 36 -58 36q-31 0 -59 -7
v65q50 13 97 13q52 0 86 -24t34 -73q0 -47 -31.5 -74.5t-88.5 -47.5z" />
    <glyph glyph-name="uni1EEE" unicode="&#x1eee;" horiz-adv-x="578" 
d="M148 19.5q-51 30.5 -72 88.5t-21 148v554h162v-577q0 -58 14 -91t58 -33t58 33t14 91v577h163v-554q0 -90 -21 -148t-72.5 -88.5t-141.5 -30.5t-141 30.5zM422 810h10q29 0 41.5 20t12.5 63h107q0 -72 -43 -109t-117 -37h-11v63zM335.5 913.5q-16.5 6.5 -37.5 19.5
q-34 21 -54 21q-36 0 -36 -41h-74q-2 135 87 135q17 0 32.5 -6t34.5 -18q18 -10 31 -15.5t27 -5.5q31 0 31 39h69q0 -60 -15.5 -97.5t-60.5 -37.5q-18 0 -34.5 6.5z" />
    <glyph glyph-name="uni1EEF" unicode="&#x1eef;" horiz-adv-x="490" 
d="M72.5 27q-26.5 37 -26.5 95v456h151v-435q0 -24 8.5 -36t28.5 -12q21 0 53 22v461h151v-578h-151v54q-69 -64 -138 -64q-50 0 -76.5 37zM330 578h10q29 0 41.5 20t12.5 63h107q0 -72 -43 -109t-117 -37h-11v63zM288.5 681.5q-16.5 6.5 -37.5 19.5q-34 21 -54 21
q-36 0 -36 -41h-74q-2 135 87 135q17 0 32.5 -6t34.5 -18q18 -10 31 -15.5t27 -5.5q31 0 31 39h69q0 -60 -15.5 -97.5t-60.5 -37.5q-18 0 -34.5 6.5z" />
    <glyph glyph-name="uni1EF0" unicode="&#x1ef0;" horiz-adv-x="578" 
d="M148 19.5q-51 30.5 -72 88.5t-21 148v554h162v-577q0 -58 14 -91t58 -33t58 33t14 91v577h163v-554q0 -90 -21 -148t-72.5 -88.5t-141.5 -30.5t-141 30.5zM422 810h10q29 0 41.5 20t12.5 63h107q0 -72 -43 -109t-117 -37h-11v63zM224 -68h132v-133h-132v133z" />
    <glyph glyph-name="uni1EF1" unicode="&#x1ef1;" horiz-adv-x="490" 
d="M72.5 27q-26.5 37 -26.5 95v456h151v-435q0 -24 8.5 -36t28.5 -12q21 0 53 22v461h151v-578h-151v54q-69 -64 -138 -64q-50 0 -76.5 37zM330 578h10q29 0 41.5 20t12.5 63h107q0 -72 -43 -109t-117 -37h-11v63zM183 -68h132v-133h-132v133z" />
    <glyph glyph-name="Ygrave" unicode="&#x1ef2;" horiz-adv-x="491" 
d="M167 321l-158 489h155l87 -285l80 285h151l-156 -489v-321h-159v321zM79 1071h155l60 -201h-91z" />
    <glyph glyph-name="ygrave" unicode="&#x1ef3;" horiz-adv-x="436" 
d="M62 -57q51 0 73.5 10.5t22.5 37.5q0 13 -6.5 41t-14.5 58l-132 488h144l73 -355l60 355h144l-134 -596q-18 -80 -67 -112.5t-131 -32.5h-32v106zM51 839h155l60 -201h-91z" />
    <glyph glyph-name="uni1EF4" unicode="&#x1ef4;" horiz-adv-x="491" 
d="M167 321l-158 489h155l87 -285l80 285h151l-156 -489v-321h-159v321zM180 -68h132v-133h-132v133z" />
    <glyph glyph-name="uni1EF5" unicode="&#x1ef5;" horiz-adv-x="436" 
d="M62 -57q51 0 73.5 10.5t22.5 37.5q0 13 -6.5 41t-14.5 58l-132 488h144l73 -355l60 355h144l-134 -596q-18 -80 -67 -112.5t-131 -32.5h-32v106zM319 -68h132v-133h-132v133z" />
    <glyph glyph-name="uni1EF6" unicode="&#x1ef6;" horiz-adv-x="491" 
d="M167 321l-158 489h155l87 -285l80 285h151l-156 -489v-321h-159v321zM196 910q38 18 54 30.5t16 32.5q0 36 -58 36q-31 0 -59 -7v65q50 13 97 13q52 0 86 -24t34 -73q0 -47 -31.5 -74.5t-88.5 -47.5z" />
    <glyph glyph-name="uni1EF7" unicode="&#x1ef7;" horiz-adv-x="436" 
d="M62 -57q51 0 73.5 10.5t22.5 37.5q0 13 -6.5 41t-14.5 58l-132 488h144l73 -355l60 355h144l-134 -596q-18 -80 -67 -112.5t-131 -32.5h-32v106zM168 678q38 18 54 30.5t16 32.5q0 36 -58 36q-31 0 -59 -7v65q50 13 97 13q52 0 86 -24t34 -73q0 -47 -31.5 -74.5
t-88.5 -47.5z" />
    <glyph glyph-name="uni1EF8" unicode="&#x1ef8;" horiz-adv-x="491" 
d="M167 321l-158 489h155l87 -285l80 285h151l-156 -489v-321h-159v321zM291.5 913.5q-16.5 6.5 -37.5 19.5q-34 21 -54 21q-36 0 -36 -41h-74q-2 135 87 135q17 0 32.5 -6t34.5 -18q18 -10 31 -15.5t27 -5.5q31 0 31 39h69q0 -60 -15.5 -97.5t-60.5 -37.5q-18 0 -34.5 6.5z
" />
    <glyph glyph-name="uni1EF9" unicode="&#x1ef9;" horiz-adv-x="436" 
d="M62 -57q51 0 73.5 10.5t22.5 37.5q0 13 -6.5 41t-14.5 58l-132 488h144l73 -355l60 355h144l-134 -596q-18 -80 -67 -112.5t-131 -32.5h-32v106zM263.5 681.5q-16.5 6.5 -37.5 19.5q-34 21 -54 21q-36 0 -36 -41h-74q-2 135 87 135q17 0 32.5 -6t34.5 -18
q18 -10 31 -15.5t27 -5.5q31 0 31 39h69q0 -60 -15.5 -97.5t-60.5 -37.5q-18 0 -34.5 6.5z" />
    <glyph glyph-name="uni2010" unicode="&#x2010;" horiz-adv-x="600" 
d="M61 390h251v-99h-251v99z" />
    <glyph glyph-name="endash" unicode="&#x2013;" horiz-adv-x="498" 
d="M4 393h490v-105h-490v105z" />
    <glyph glyph-name="emdash" unicode="&#x2014;" horiz-adv-x="986" 
d="M4 419h979v-104h-979v104z" />
    <glyph glyph-name="quoteleft" unicode="&#x2018;" horiz-adv-x="224" 
d="M26 652q2 88 28 129t89 42l13 -48q-34 -1 -46.5 -24.5t-12.5 -70.5h66v-136h-138z" />
    <glyph glyph-name="quoteright" unicode="&#x2019;" horiz-adv-x="224" 
d="M68 579q34 1 46.5 24t12.5 70h-66v137h138l-1 -108q-3 -89 -28.5 -130t-88.5 -42z" />
    <glyph glyph-name="quotesinglbase" unicode="&#x201a;" horiz-adv-x="237" 
d="M68 -65q34 1 46.5 24t12.5 70h-66v137h138l-1 -108q-3 -89 -28.5 -130t-88.5 -42z" />
    <glyph glyph-name="quotedblleft" unicode="&#x201c;" horiz-adv-x="422" 
d="M26 652q2 88 28 129t89 42l13 -48q-34 -1 -46.5 -24.5t-12.5 -70.5h66v-136h-138zM225 652q2 88 28 129t89 42l13 -48q-34 -1 -46.5 -24.5t-12.5 -70.5h66v-136h-138z" />
    <glyph glyph-name="quotedblright" unicode="&#x201d;" horiz-adv-x="422" 
d="M68 579q34 1 46.5 24t12.5 70h-66v137h138l-1 -108q-3 -89 -28.5 -130t-88.5 -42zM267 579q34 1 46.5 24t12.5 70h-66v137h138l-1 -108q-3 -89 -28.5 -130t-88.5 -42z" />
    <glyph glyph-name="quotedblbase" unicode="&#x201e;" horiz-adv-x="422" 
d="M254 -65q34 1 46.5 24t12.5 70h-66v137h138l-1 -108q-3 -89 -28.5 -130t-88.5 -42zM68 -65q34 1 46.5 24t12.5 70h-66v137h138l-1 -108q-3 -89 -28.5 -130t-88.5 -42z" />
    <glyph glyph-name="dagger" unicode="&#x2020;" horiz-adv-x="402" 
d="M140 502h-107v95h107v210h125v-210h105v-95h-105v-502h-125v502z" />
    <glyph glyph-name="daggerdbl" unicode="&#x2021;" horiz-adv-x="404" 
d="M142 242h-111v86h111v161h-111v90h111v229h123v-229h109v-90h-109v-161h109v-86h-109v-242h-123v242z" />
    <glyph glyph-name="bullet" unicode="&#x2022;" horiz-adv-x="454" 
d="M143.5 225.5q-37.5 19.5 -60 58t-22.5 91.5q0 54 22.5 93t60.5 59t82 20q45 0 82.5 -20t60 -59t22.5 -93q0 -53 -22.5 -91.5t-60 -58t-82.5 -19.5t-82.5 19.5z" />
    <glyph glyph-name="ellipsis" unicode="&#x2026;" horiz-adv-x="640" 
d="M465 147h145v-147h-145v147zM32 146h144v-146h-144v146zM247 146h145v-146h-145v146z" />
    <glyph glyph-name="perthousand" unicode="&#x2030;" horiz-adv-x="1401" 
d="M86.5 407.5q-42.5 51.5 -42.5 158.5v41q0 108 41.5 156.5t140.5 48.5t141 -47.5t42 -154.5v-46q0 -106 -42.5 -157t-140.5 -51q-97 0 -139.5 51.5zM567 810h90l-242 -810h-91zM271.5 482.5q10.5 26.5 10.5 87.5v35q0 41 -3.5 62.5t-15 33t-37.5 11.5t-37.5 -11.5t-15 -33
t-3.5 -62.5v-36q0 -61 10.5 -87t45.5 -26t45.5 26.5zM615.5 49.5q-42.5 51.5 -42.5 157.5v42q0 107 41.5 156t140.5 49t141 -48t42 -155v-45q0 -106 -42.5 -157t-140.5 -51q-97 0 -139.5 51.5zM1032.5 49.5q-42.5 51.5 -42.5 157.5v42q0 107 41.5 156t140.5 49t141 -48
t42 -155v-45q0 -106 -42.5 -157t-140.5 -51q-97 0 -139.5 51.5zM801 123.5q10 26.5 10 87.5v36q0 42 -3 63t-15 32.5t-38 11.5q-25 0 -37 -11.5t-15.5 -33t-3.5 -62.5v-36q0 -61 10.5 -87.5t45.5 -26.5q36 0 46 26.5zM1217.5 123.5q10.5 26.5 10.5 87.5v36q0 42 -3 63
t-15 32.5t-38 11.5t-37.5 -11.5t-15 -33t-3.5 -62.5v-37q0 -60 10.5 -86.5t45.5 -26.5t45.5 26.5z" />
    <glyph glyph-name="minute" unicode="&#x2032;" horiz-adv-x="202" 
d="M46 810h126l-68 -232h-74z" />
    <glyph glyph-name="second" unicode="&#x2033;" horiz-adv-x="366" 
d="M46 810h126l-68 -224h-74zM211 810h125l-67 -224h-75z" />
    <glyph glyph-name="guilsinglleft" unicode="&#x2039;" horiz-adv-x="285" 
d="M39 248v78l205 221v-152l-110 -107l110 -110v-152z" />
    <glyph glyph-name="guilsinglright" unicode="&#x203a;" horiz-adv-x="279" 
d="M45 200l112 109l-112 109v151l204 -233v-55l-204 -233v152z" />
    <glyph glyph-name="fraction" unicode="&#x2044;" horiz-adv-x="174" 
d="M217 810h96l-383 -810h-96z" />
    <glyph glyph-name="uni2052" unicode="&#x2052;" horiz-adv-x="485" 
d="M48 810h129v-138h-129v138zM319 810h91l-243 -810h-91zM309 138h129v-138h-129v138z" />
    <glyph glyph-name="uni2074" unicode="&#x2074;" horiz-adv-x="472" 
d="M243 535h-176v71l195 282h93v-280h44v-73h-44v-102h-112v102zM243 608l-1 136l-92 -136h93z" />
    <glyph glyph-name="colonmonetary" unicode="&#x20a1;" horiz-adv-x="553" 
d="M377 517v76v12l-65 -496q37 6 51 33t14 77v80h136v-68q0 -113 -49 -176.5t-167 -66.5l-12 -91h-48l12 93q-15 1 -36 5l-13 -98h-48l15 113q-63 28 -90.5 91t-27.5 157v290q0 130 50.5 198.5t171.5 72.5l12 89h48l-12 -90q13 -1 37 -5l12 95h48l-14 -109q59 -24 85 -78
t26 -135v-69h-136zM264 108l76 583q-18 9 -36 10l-75 -582q17 -8 35 -11zM191 202l65 497q-36 -7 -50.5 -34.5t-14.5 -77.5v-368v-17z" />
    <glyph glyph-name="franc" unicode="&#x20a3;" horiz-adv-x="425" 
d="M225 697v-218h151v-115h-151v-114h104v-92h-104v-158h-164v158h-60v92h60v560h342v-113h-178z" />
    <glyph glyph-name="lira" unicode="&#x20a4;" 
d="M231 663q-8 -31 -8 -100v-79h119v-92h-119v-55h119v-92h-119v-119h214v-126h-420v84l60 27v134h-60v93h60v54h-60v92h60v52q0 92 13 151.5t54.5 96t122.5 36.5q99 0 137 -54.5t38 -155.5v-26h-129q0 54 -8.5 82t-36.5 28q-29 0 -37 -31z" />
    <glyph glyph-name="uni20A6" unicode="&#x20a6;" horiz-adv-x="554" 
d="M493 487v-141h50v-90h-50v-256h-111l-103 256h-77v-256h-141v256h-51v90h51v141h-51v90h51v233h115l100 -233h80v233h137v-234h50v-89h-50zM309 499l47 -110v110h-47zM248 334l-46 114v-114h46z" />
    <glyph glyph-name="peseta" unicode="&#x20a7;" horiz-adv-x="1273" 
d="M61 810h257q210 0 210 -233q0 -123 -60 -174.5t-167 -51.5h-76v-351h-164v810zM284 467q53 0 71 25t18 88q0 41 -6 64.5t-25.5 36.5t-58.5 13h-58v-227h59zM643.5 32q-33.5 39 -33.5 119v328h-57v99h57v174h153v-174h84v-99h-84v-313q0 -51 51 -51q27 0 43 4v-118
q-53 -8 -93 -8q-87 0 -120.5 39zM956 26.5q-49 36.5 -75 112.5l106 44q30 -89 85 -89q21 0 31.5 9.5t10.5 26.5q0 23 -14.5 41t-57.5 55l-54 46q-48 41 -71 76t-23 84q0 46 23 81.5t62.5 55t86.5 19.5q70 0 115.5 -39.5t62.5 -110.5l-98 -44q-9 36 -29 61.5t-47 25.5
q-18 0 -29 -10.5t-11 -27.5t17 -36.5t53 -50.5l54 -48q47 -40 73.5 -77t26.5 -86q0 -48 -23.5 -83t-63.5 -53.5t-87 -18.5q-75 0 -124 36.5z" />
    <glyph glyph-name="uni20A9" unicode="&#x20a9;" horiz-adv-x="704" 
d="M634 490l-19 -144h66v-91h-77l-33 -255h-141l-39 255h-77l-37 -255h-143l-33 255h-78v91h66l-19 144h-47v91h36l-30 229h139l26 -229h69l33 228h111l34 -229h70l27 230h137l-30 -230h36v-90h-47zM221 346h8l22 151h-47zM377 346l-23 151h-4l-22 -151h49zM484 346l18 151
h-48l23 -151h7z" />
    <glyph glyph-name="dong" unicode="&#x20ab;" horiz-adv-x="490" 
d="M40 181v212q0 89 33.5 142t102.5 53q57 0 108 -46v138h-129v65h129v65h151v-65h51v-65h-51v-680h-151v43q-51 -53 -108 -53q-136 0 -136 191zM284 107v368q-26 15 -46 15q-24 0 -35.5 -20.5t-11.5 -54.5v-245q0 -80 47 -80q20 0 46 17zM62.7422 -59h371.667v-96h-371.667
v96z" />
    <glyph glyph-name="Euro" unicode="&#x20ac;" horiz-adv-x="546" 
d="M110.5 59q-54.5 70 -54.5 200v54h-52v57h52v68h-52v57h52v54q0 133 54 202t184 69q123 0 175 -60.5t52 -173.5v-47h-161v54q0 37 -3.5 58.5t-18 36t-44.5 14.5q-44 0 -57 -29t-13 -85v-93h103v-57h-103v-68h103v-57h-103v-93q0 -57 15 -85t55 -28q42 0 54 28.5t12 84.5
v41h161v-29q0 -116 -51 -179.5t-176 -63.5q-129 0 -183.5 70z" />
    <glyph glyph-name="uni20AD" unicode="&#x20ad;" horiz-adv-x="637" 
d="M440 0l-230 379v-379h-146v401h-55v92h55v317h146v-298l188 298h160l-196 -317h165v-92h-167l239 -401h-159z" />
    <glyph glyph-name="uni20B1" unicode="&#x20b1;" horiz-adv-x="623" 
d="M584 562h-54q1 -9 1 -28v-18h53v-72h-60q-18 -97 -74.5 -138t-145.5 -41h-75v-265h-149v444h-52v73h52v45h-52v72h52v176h241q167 0 201 -176h62v-72zM229 634h148q-9 32 -29.5 48.5t-60.5 16.5h-58v-65zM229 514h156v22v28h-156v-50zM348.5 392q21.5 16 29.5 52h-149
v-68h58q40 0 61.5 16z" />
    <glyph glyph-name="uni20B2" unicode="&#x20b2;" horiz-adv-x="572" 
d="M520 416v-416h-108l-11 72q-27 -63 -89 -79v-96h-47v91q-116 1 -166 73.5t-50 206.5v271q0 133 49 203.5t167 76.5v89h47v-89q110 -6 157.5 -66t47.5 -170v-47h-160v57q0 56 -12.5 82.5t-56.5 26.5q-45 0 -58 -30t-13 -87v-360q0 -57 16 -87.5t60 -30.5q43 0 60.5 32.5
t17.5 90.5v86h-79v100h228z" />
    <glyph glyph-name="uni20B5" unicode="&#x20b5;" horiz-adv-x="553" 
d="M353 518v75q0 36 -3.5 58t-18 36.5t-44.5 14.5q-45 0 -58 -29t-13 -85v-368q0 -57 15 -85t56 -28q42 0 54 28.5t12 84.5v79h160v-67q0 -110 -45.5 -173t-155.5 -69v-93h-47v93q-118 6 -167 75t-49 194v290q0 128 49 196.5t167 74.5v88h47v-89q109 -6 155 -66t46 -167v-68
h-160z" />
    <glyph glyph-name="uni20B9" unicode="&#x20b9;" horiz-adv-x="564" 
d="M447 697q26 -35 34 -84h57v-113h-55q-16 -113 -116 -151q52 -29 78 -105l87 -244h-168l-73 215q-16 46 -39 64.5t-73 18.5h-123v113h174q46 0 68.5 22t28.5 67h-271v113h271q-7 43 -32.5 63.5t-79.5 20.5h-159v113h482v-113h-91z" />
    <glyph glyph-name="uni20BA" unicode="&#x20ba;" horiz-adv-x="573" 
d="M525 322v-61q0 -93 -24 -149.5t-81 -84t-157 -27.5h-202v372l-52 -15v93l52 15v58l-52 -15v93l52 15v194h164v-149l217 61v-91l-217 -62v-59l217 61v-91l-217 -62v-303h36q43 0 63.5 13.5t26 39.5t5.5 75v79h169z" />
    <glyph glyph-name="uni20BC" unicode="&#x20bc;" horiz-adv-x="579" 
d="M479.5 633.5q44.5 -61.5 44.5 -182.5v-451h-148v480q0 44 -12 70t-41 35v-585h-67v585q-30 -9 -42 -34.5t-12 -70.5v-480h-147v451q0 121 44.5 182.5t156.5 69.5v107h67v-107q112 -8 156.5 -69.5z" />
    <glyph glyph-name="uni20BD" unicode="&#x20bd;" horiz-adv-x="555" 
d="M229 303v-94l206 -1v-71h-206v-137h-149v137h-52v72h52v601h241q110 0 160 -63t50 -195q0 -125 -55.5 -187t-171.5 -62h-75zM229 415h58q54 0 76 30t22 106q0 57 -8.5 88.5t-29.5 45.5t-60 14h-58v-284z" />
    <glyph glyph-name="uni2113" unicode="&#x2113;" horiz-adv-x="590" 
d="M288 132q0 -33 12 -49.5t32 -16.5t46 16t52 46l42 -56q-36 -40 -79 -62t-83 -22q-50 0 -81.5 34.5t-31.5 101.5q0 24 4 47l11 73l-82 -99l-46 52l149 187l60 406q7 47 32 81t59 51.5t70 17.5q49 0 82 -32.5t33 -93.5q0 -63 -42 -151.5t-134 -199.5l-68 -83l-34 -210
q-3 -21 -3 -38zM447 687.5q30 66.5 30 107.5q0 26 -10.5 40t-25.5 14q-17 0 -32 -16t-19 -43l-41 -259q68 90 98 156.5z" />
    </font>
</defs>
</svg>
